Лавалантула / Lavalantula (Майк Мендез / Mike Mendez) [2015, США, ужасы, фантастика, HDRip] MVO (Официальный звук)

Ответить на тему
Статистика раздачи
Размер:  1,35 GB   |    Зарегистрирован:  1 год 1 месяц   |    Скачан:  3 раза

Полного источника не было: 1 год 1 месяц

 
     
 
 
Автор Сообщение

Crash08 ®

Пол: Мужской

Стаж: 5 лет 6 месяцев

Сообщений: 4789

Создавать темы 19-Мар-2016 17:01

[Цитировать]

-Лавалантула
Lavalantula
- Страна: США
Жанр: ужасы, фантастика
Год выпуска: 2015
Продолжительность: 01:23:39
Перевод: Профессиональный (многоголосый закадровый) [Официальный звук]
Cубтитры: нет
Режиссер: Майк Мендез / Mike Mendez-В ролях: Стив Гуттенберг, Ниа Пиплз, Патрик Ренна, Карлос Бернард, Майкл Уинслоу, Мэрион Рэмси, Лесли Истербрук, Ральф Гармен, Дэнни Вудберн, Ной Хант-Описание: Главный герой, лишившись роли в крутом блокбастере, получает новый шанс проявить себя. В Лос-Анджелесе происходит череда неприятных событий. Всё началось с обычного землетрясения, но дальнейшего извержения вулкана никто не ожидал. Вскоре в охваченном огнем городе появляется огромный паук! И во всем круговороте событий Уэсту отведена главная роль-
-Качество видео: HDRip
Формат видео: AVI
Видео: XviD, 720x400 (16:9), 23.976 fps, 1921 kbps,0.278 bpp
Аудио: 48 kHz, AC3 Dolby Digital, 2/0 (L,R) ch, ~384 kbps-
MediaInfo
General
Complete name : D:\Фильмы\Lavalantula.2015.P.HDRip.1400MB.avi
Format : AVI
Format/Info : Audio Video Interleave
File size : 1.35 GiB
Duration : 1h 23mn
Overall bit rate : 2 314 Kbps
Writing application : VirtualDubMod 1.5.10.2 (build 2540/release)
Writing library : VirtualDubMod build 2540/release
Video
ID : 0
Format : MPEG-4 Visual
Format profile : Advanced Simple@L5
Format settings, BVOP : 2
Format settings, QPel : No
Format settings, GMC : No warppoints
Format settings, Matrix : Default (H.263)
Muxing mode : Packed bitstream
Codec ID : XVID
Codec ID/Hint : XviD
Duration : 1h 23mn
Bit rate : 1 921 Kbps
Width : 720 pixels
Height : 400 pixels
Display aspect ratio : 16:9
Frame rate : 23.976 (24000/1001) fps
Color space : YUV
Chroma subsampling : 4:2:0
Bit depth : 8 bits
Scan type : Progressive
Compression mode : Lossy
Bits/(Pixel*Frame) : 0.278
Stream size : 1.12 GiB (83%)
Writing library : XviD 66
Audio
ID : 1
Format : AC-3
Format/Info : Audio Coding 3
Mode extension : CM (complete main)
Format settings, Endianness : Big
Codec ID : 2000
Duration : 1h 23mn
Bit rate mode : Constant
Bit rate : 384 Kbps
Channel(s) : 2 channels
Channel positions : Front: L R
Sampling rate : 48.0 KHz
Frame rate : 31.250 fps (1536 spf)
Compression mode : Lossy
Stream size : 230 MiB (17%)
Alignment : Split accross interleaves
Interleave, duration : 42 ms (1.00 video frame)
Interleave, preload duratio : 500 ms
-
Скриншот c названием фильма
Скриншоты
-
[reactorr.org].t72808.torrent
Торрент: Зарегистрирован [ 19-03-2016 17:01 ] · 95E4A43CC06F18DD1DD48705E2B7490F507011E9

Скачать .torrent

Скачать

14 KB

Статус: проверено
Скачан: 3 раз
Размер: 1,35 GB
terms.php
[Профиль] [ЛС]
Показать сообщения:    
Ответить на тему

Текущее время: 27-Апр 08:35

Часовой пояс: UTC + 3



Вы не можете начинать темы
Вы не можете отвечать на сообщения
Вы не можете редактировать свои сообщения
Вы не можете удалять свои сообщения
Вы не можете голосовать в опросах
Вы не можете прикреплять файлы к сообщениям
Вы можете скачивать файлы