Джейсон Борн / Jason Bourne (Пол Гринграсс) [2016 г., боевик, триллер, WEB-DLRip-AVC] DUB | Чистый звук

Ответить на тему
 
Автор
Сообщение

Информация о фильме
Название: Джейсон Борн
Оригинальное название: Jason Bourne
Год выпуска: 2016
Выпущено: Великобритания, Китай, США / Universal Pictures
Жанр: боевик, триллер
Продолжительность: 02:03:11
Перевод: Профессиональный (полное дублирование) Line + Оригинальная дорожка
Субтитры: Английские (SDH) (.srt*)
Навигация по главам: Есть (20 глав)
Режиссер:
Пол Гринграсс / Paul Greengrass
В ролях:
Мэтт Дэймон, Алисия Викандер, Томми Ли Джонс, Венсан Кассель, Джулия Стайлз, Риз Ахмед, Ато Эссонда, Скотт Шеперд, Билл Кэмп, Винцец Кифер
О фильме:
Мир на грани катастрофы, а значит пришло время ему вернуться. Неаполь, Мюнхен, Нью-Йорк — его имя знают повсюду. Элитный суперагент, лучший из лучших, даже в Лас-Вегасе игра пойдет по его правилам. Он — Джейсон Борн.

| | РЕКЛАМЫ НЕТ! |
Файл
Качество: WEB-DLRip [Jason Bourne 2016 1080p WEB-DL H264 AC3-EVO]
Формат: MKV
Видео кодек: x264
Аудио кодек: AC3
Видео: 928x384 (16:9), 23.976 fps, x264 ~1320 kbps avg, 0.154 bit/pixel
Аудио #1: 48 kHz, AC3 Dolby Digital, 2/0 (L,R) ch, ~192 kbps avg (RUS)
Аудио #2: 48 kHz, AC3 Dolby Digital, 2/0 (L,R) ch, ~192 kbps avg (ENG)

Скриншоты

MediaInfo

Код:
Общее
Полное имя                               : D:Jason_Bourne_2016_WEB-DLRip-AVC_Line_by_Dalemake.mkv
Формат                                   : Matroska
Версия формата                           : Version 4 / Version 2
Размер файла                             : 1,47 Гбайт
Продолжительность                        : 2 ч. 3 м.
Общий поток                              : 1706 Кбит/сек
Название фильма                          : [Jason_Bourne_2016_All Films_by Dalemake]
Дата кодирования                         : UTC 2016-11-04 07:14:40
Программа кодирования                    : mkvmerge v7.8.0 ('River Man') 32bit built on Apr  3 2015 12:11:22
Библиотека кодирования                   : libebml v1.3.1 + libmatroska v1.4.2
DURATION                                 : 01:53:00.026000000
NUMBER_OF_FRAMES                         : 1236
NUMBER_OF_BYTES                          : 35648
_STATISTICS_WRITING_APP                  : mkvmerge v7.8.0 ('River Man') 32bit built on Apr  3 2015 12:11:22
_STATISTICS_WRITING_DATE_UTC             : 2016-11-04 07:14:40
_STATISTICS_TAGS                         : BPS DURATION NUMBER_OF_FRAMES NUMBER_OF_BYTES
Видео
Идентификатор                            : 1
Формат                                   : AVC
Формат/Информация                        : Advanced Video Codec
Профиль формата                          : High@L4.1
Параметр CABAC формата                   : Да
Параметр ReFrames формата                : 11 кадров
Идентификатор кодека                     : V_MPEG4/ISO/AVC
Продолжительность                        : 2 ч. 3 м.
Битрейт                                  : 1320 Кбит/сек
Ширина                                   : 928 пикселей
Высота                                   : 384 пикселя
Соотношение сторон                       : 2,40:1
Частота кадров                           : 23,976 кадра/сек
Цветовое пространство                    : YUV
Субдискретизация насыщенности            : 4:2:0
Битовая глубина                          : 8 бит
Тип развёртки                            : Прогрессивная
Бит/(Пиксели*Кадры)                      : 0.154
Размер потока                            : 1,11 Гбайт (76%)
Заголовок                                : [Jason_Bourne_2016_All Films_by Dalemake]
Библиотека кодирования                   : x264 core 146 r2538 121396c
Настройки программы                      : cabac=1 / ref=11 / deblock=1:-2:-1 / analyse=0x3:0x113 / me=umh / subme=11 / psy=1 / psy_rd=1.00:0.00 / mixed_ref=1 / me_range=48 / chroma_me=1 / trellis=2 / 8x8dct=1 / cqm=0 / deadzone=21,11 / fast_pskip=0 / chroma_qp_offset=-2 / threads=6 / lookahead_threads=1 / sliced_threads=0 / nr=0 / decimate=0 / interlaced=0 / bluray_compat=0 / constrained_intra=0 / bframes=10 / b_pyramid=2 / b_adapt=2 / b_bias=0 / direct=3 / weightb=1 / open_gop=0 / weightp=2 / keyint=240 / keyint_min=23 / scenecut=40 / intra_refresh=0 / rc_lookahead=60 / rc=2pass / mbtree=0 / bitrate=1320 / ratetol=1.0 / qcomp=0.60 / qpmin=0 / qpmax=69 / qpstep=4 / cplxblur=20.0 / qblur=0.5 / vbv_maxrate=50000 / vbv_bufsize=62500 / nal_hrd=none / filler=0 / ip_ratio=1.30 / pb_ratio=1.25 / aq=1:1.00
Default                                  : Да
Forced                                   : Нет
Аудио #1
Идентификатор                            : 2
Формат                                   : AC-3
Формат/Информация                        : Audio Coding 3
Расширение режима                        : CM (complete main)
Параметр Endianness формата              : Big
Идентификатор кодека                     : A_AC3
Продолжительность                        : 2 ч. 3 м.
Вид битрейта                             : Постоянный
Битрейт                                  : 192 Кбит/сек
Каналы                                   : 2 канала
Расположение каналов                     : Front: L R
Частота                                  : 48,0 КГц
Битовая глубина                          : 16 бит
Метод сжатия                             : С потерями
Размер потока                            : 169 Мбайт (11%)
Заголовок                                : Dub - Line
Язык                                     : Russian
Default                                  : Да
Forced                                   : Да
Аудио #2
Идентификатор                            : 3
Формат                                   : AC-3
Формат/Информация                        : Audio Coding 3
Расширение режима                        : CM (complete main)
Параметр Endianness формата              : Big
Идентификатор кодека                     : A_AC3
Продолжительность                        : 2 ч. 3 м.
Вид битрейта                             : Постоянный
Битрейт                                  : 192 Кбит/сек
Каналы                                   : 2 канала
Расположение каналов                     : Front: L R
Частота                                  : 48,0 КГц
Битовая глубина                          : 16 бит
Метод сжатия                             : С потерями
Размер потока                            : 169 Мбайт (11%)
Заголовок                                : Original
Язык                                     : English
Default                                  : Нет
Forced                                   : Нет
Текст
Идентификатор                            : 4
Формат                                   : UTF-8
Идентификатор кодека                     : S_TEXT/UTF8
Идентификатор кодека/Информация          : UTF-8 Plain Text
Заголовок                                : Full - SDH
Язык                                     : English
Default                                  : Нет
Forced                                   : Нет
Меню
00:00:00.000                             : en:1
00:04:06.000                             : en:2
00:08:23.000                             : en:3
00:13:34.000                             : en:4
00:18:30.000                             : en:5
00:24:09.000                             : en:6
00:29:20.000                             : en:7
00:36:17.000                             : en:8
00:42:22.000                             : en:9
00:48:24.000                             : en:10
00:55:14.000                             : en:11
01:01:11.000                             : en:12
01:08:29.000                             : en:13
01:16:25.000                             : en:14
01:24:47.000                             : en:15
01:29:08.000                             : en:16
01:37:54.000                             : en:17
01:44:28.000                             : en:18
01:48:05.000                             : en:19
01:54:03.000                             : en:20


Последний раз редактировалось: Crash08 (04-11-2016 18:28), всего редактировалось 2 раза
 

Замена перевода!
 

Чистый звук!
 

Замена качества на WEB-DLRip!
 
Показать сообщения:    
Ответить на тему