Терраформирование / Терраформеры / Terra Formars / Terafomazu (Такаси Миике / Takashi Miike) [2016, ужасы, фантастика, боевик, BDRip-AVC] [DVO]

Ответить на тему
Статистика раздачи
Размер:  1,46 GB   |    Зарегистрирован:  1 год 1 месяц   |    Скачан:  6 раз
Сидов:  16  [  0 KB/s  ]   Личеров:  8  [  0 KB/s  ]   Подробная статистика пиров
 
     
 
 
Автор Сообщение

Crash08 ®

Пол: Мужской

Стаж: 6 лет 2 месяца

Сообщений: 4789

Создавать темы 24-Окт-2016 15:11

[Цитировать]

Терраформирование
Terra Formars / Terafomazu

Страна: Япония
Жанр: ужасы, фантастика, боевик
Год выпуска: 2016
Продолжительность: 01:48:55
Перевод: Любительский (двухголосый, закадровый) [GREEN TEA]
Субтитры: английские (fansub by FURRITSUBS),
Оригинальная аудиодорожка: японский
Режиссер: Такаси Миике / Takashi Miike
В ролях: Ринко Кикути, Рила Фукусима, Кейн Косуги, Такаюки Ямада, Эми Такэи, Сюн Огури, Ямасита Томохиса, Марико Синода, Масая Като, Хидэаки Ито, Эико Коикэ, Рина Ота
Описание:
С давних пор человечество изучает Марс, пытаясь подчинить себе этот безжизненный и суровый мир. Ученые уже не один десяток лет бьются над планами освоения этой планеты ради блага человечества, запуская на неё различные формы жизни и наблюдая за ними. Теперь, спустя сотни лет, когда Земля становится перенаселенной людьми, находится способ превратить красную планету в пригодное для жизни место. Запускается проект терраформирования, для завершения которого на Марс отправляется группа смельчаков. Но при приземлении их встречает отнюдь не безмолвная пустыня, а гигантские монстры.

Автор рипа: stalkerok
Сэмпл
Качество видео: BDRip-AVC [Terra.Formars.2016.BluRay.REMUX.1080p.AVC.DTS-HD.MA5.1-HDS]
Формат видео: MKV
Видео кодек: AVC
Аудио кодек: AC3
Видео: 1530 Кбит/сек, 1022x428 (2.40:1), 23,976 кадр/сек, AVC
Аудио №1: русский, 192 Кбит/сек, 48 КГц, 16 бит, 2.0, AC3
Аудио №2: японский, 192 Кбит/сек, 48 КГц, 16 бит, 2.0, AC3
Навигация по главам: есть

Доп. информация
x264/MediaInfo
x264 [info]: frame I:1026 Avg QP:14.66 size: 60339
x264 [info]: frame P:33973 Avg QP:18.13 size: 16908
x264 [info]: frame B:121706 Avg QP:20.08 size: 5039
Общее
Уникальный идентификатор : 175736789238390571180248009444048900020 (0x8435ACAA3A4A3C0892245039F4AA0FB4)
Полное имя : M:\3Rips\Terra Formars\Terra.Formars.2016.BDRip-AVC.DVO.1.45Gb.stalkerok.new-team.mkv
Формат : Matroska
Версия формата : Version 4 / Version 2
Размер файла : 1,46 Гбайт
Продолжительность : 1 ч. 48 м.
Общий поток : 1916 Кбит/сек
Название фильма : Terra Formars (2016) (Rip by stalkerok)
Дата кодирования : UTC 2016-10-24 09:57:05
Программа кодирования : mkvmerge v8.6.1 ('Flying') 64bit
Библиотека кодирования : libebml v1.3.3 + libmatroska v1.4.4
Видео
Идентификатор : 1
Формат : AVC
Формат/Информация : Advanced Video Codec
Профиль формата : High@L4.1
Параметр CABAC формата : Да
Параметр ReFrames формата : 14 кадров
Идентификатор кодека : V_MPEG4/ISO/AVC
Продолжительность : 1 ч. 48 м.
Битрейт : 1530 Кбит/сек
Ширина : 1022 пикселя
Высота : 428 пикселей
Соотношение сторон : 2,40:1
Режим частоты кадров : Постоянный
Частота кадров : 23,976 (24000/1001) кадра/сек
Цветовое пространство : YUV
Субдискретизация насыщенности : 4:2:0
Битовая глубина : 8 бит
Тип развёртки : Прогрессивная
Бит/(Пиксели*Кадры) : 0.146
Размер потока : 1,16 Гбайт (80%)
Заголовок : Terra Formars (2016) (Rip by stalkerok)
Библиотека кодирования : x264 core 148 r2705+54 9f484c1 t_mod_Custom [8-bit@all X86_64]
Настройки программы : cabac=1 / ref=14 / deblock=1:-3:-2 / analyse=0x3:0x133 / me=umh / subme=10 / psy=1 / fade_compensate=0.00 / psy_rd=1.00:0.00 / mixed_ref=1 / me_range=32 / chroma_me=1 / trellis=2 / 8x8dct=1 / cqm=0 / deadzone=21,11 / fast_pskip=0 / chroma_qp_offset=-2 / threads=12 / lookahead_threads=3 / sliced_threads=0 / nr=0 / decimate=0 / interlaced=0 / bluray_compat=0 / constrained_intra=0 / fgo=0 / bframes=14 / b_pyramid=2 / b_adapt=2 / b_bias=0 / direct=3 / weightb=1 / open_gop=0 / weightp=2 / keyint=240 / keyint_min=23 / scenecut=40 / intra_refresh=0 / rc_lookahead=60 / rc=2pass / mbtree=0 / bitrate=1530 / ratetol=1.0 / qcomp=0.65 / qpmin=0:0:0 / qpmax=69:69:69 / qpstep=4 / cplxblur=20.0 / qblur=0.5 / vbv_maxrate=50000 / vbv_bufsize=62500 / nal_hrd=none / filler=0 / ip_ratio=1.35 / pb_ratio=1.27 / aq=3:0.80 / aq-sensitivity=10.00 / aq-factor=1.00:1.00:1.00 / aq2=0 / aq3=0
Default : Да
Forced : Нет
Аудио #1
Идентификатор : 2
Формат : AC-3
Формат/Информация : Audio Coding 3
Расширение режима : CM (complete main)
Параметр Endianness формата : Big
Идентификатор кодека : A_AC3
Продолжительность : 1 ч. 48 м.
Вид битрейта : Постоянный
Битрейт : 192 Кбит/сек
Каналы : 2 канала
Расположение каналов : Front: L R
Частота : 48,0 КГц
Частота кадров : 31,250 кадров/сек (1536 spf)
Метод сжатия : С потерями
Размер потока : 150 Мбайт (10%)
Заголовок : DVO [GREEN TEA]
Язык : Russian
Default : Да
Forced : Нет
Аудио #2
Идентификатор : 3
Формат : AC-3
Формат/Информация : Audio Coding 3
Расширение режима : CM (complete main)
Параметр Endianness формата : Big
Идентификатор кодека : A_AC3
Продолжительность : 1 ч. 48 м.
Вид битрейта : Постоянный
Битрейт : 192 Кбит/сек
Каналы : 2 канала
Расположение каналов : Front: L R
Частота : 48,0 КГц
Частота кадров : 31,250 кадров/сек (1536 spf)
Метод сжатия : С потерями
Размер потока : 150 Мбайт (10%)
Язык : Japanese
Default : Нет
Forced : Нет
Текст
Идентификатор : 4
Формат : ASS
Идентификатор кодека : S_TEXT/ASS
Идентификатор кодека/Информация : Advanced Sub Station Alpha
Продолжительность : 1 ч. 44 м.
Битрейт : 63 бит/сек
Count of elements : 902
Метод сжатия : Без потерь
Размер потока : 48,7 Кбайт (0%)
Заголовок : fansub by FURRITSUBS
Язык : English
Default : Нет
Forced : Нет
Меню
00:00:00.000 : en:Chapter 1
00:08:34.013 : en:Chapter 2
00:13:45.032 : en:Chapter 3
00:18:08.420 : en:Chapter 4
00:25:27.567 : en:Chapter 5
00:33:47.984 : en:Chapter 6
00:43:52.463 : en:Chapter 7
00:53:00.051 : en:Chapter 8
01:02:26.117 : en:Chapter 9
01:09:47.265 : en:Chapter 10
01:17:35.149 : en:Chapter 11
01:27:17.982 : en:Chapter 12
01:38:07.171 : en:Chapter 13
01:44:33.892 : en:Chapter 14
Скриншоты
[reactorr.org].t73982.torrent
Торрент: Зарегистрирован [ 24-10-2016 15:11 ] · 00679254CB2264D1B4D9705E20461699E86BB259

Скачать .torrent

Скачать

15 KB

Статус: проверено
Скачан: 6 раз
Размер: 1,46 GB
terms.php
[Профиль] [ЛС]

Feudor888

Пол: Мужской

Стаж: 4 года 11 месяцев

Сообщений: 75

Создавать темы 24-Окт-2016 20:15 (спустя 5 часов)

[Цитировать]

*ля взрыв мозга. bu bm
[Профиль] [ЛС]
Показать сообщения:    
Ответить на тему

Текущее время: 13-Дек 14:08

Часовой пояс: UTC + 3



Вы не можете начинать темы
Вы не можете отвечать на сообщения
Вы не можете редактировать свои сообщения
Вы не можете удалять свои сообщения
Вы не можете голосовать в опросах
Вы не можете прикреплять файлы к сообщениям
Вы можете скачивать файлы