Трое / Te3n (Рибху Дасгупта) [2016, Триллер, драма, детектив, BDRip-AVC] MVO

Ответить на тему
Статистика раздачи
Размер:  2,47 GB   |    Зарегистрирован:  3 месяца 25 дней   |    Скачан:  0 раз

Полного источника не было: Никогда

 
     
 
 
Автор Сообщение

Crash08 ®

Пол: Мужской

Стаж: 5 лет 4 месяца

Сообщений: 4791

Создавать темы 30-Окт-2016 22:28

[Цитировать]

Информация о фильме
Название: Трое
Оригинальное название: Te3n
Год выхода: 2016
Жанр: Триллер, драма, детектив
Режиссер: Рибху Дасгупта
В ролях: Амитабх Баччан, Навазуддин Сиддикуи, Видья Балан, Мукеш Чхабра, Падмавати Рао, Сабьясачи Чакраборти, Сунил Синха, Тота Рой Чаудхари, Анупам Бхаттачария, Паритош Санд, Ардхенду Банерджи
О фильме:
8 лет назад была похищена девочка. Её похититель исчез без следа. Полиции так и не удалось найти его. Спустя 8 лет, таким же способом совершается ещё одно похищение. Теперь три человека пытаются любым способом найти похитителя: полицейский, а ныне священник, который когда-то расследовал это дело, дедушка, внучку которого украли средь бела дня, и женщина-детектив, которая взялась за расследование дела о втором похищении.

Страна: Индия
Студия: Blue Waters Motion Pictures, Cinemaa, EndemolShine India, Kross Pictures, Drishyam Studios, Prime Focus
Продолжительность: 02:13:28
Перевод: Любительский многоголосый закадровый
Файл
Кодек: h.264
Качество: BDRip-AVC
Видео: MPEG-4 AVC, 1831 Кбит/с, 1024x436, 24.000 кадр/с
Звук:
Русский (AC3, 6 ch, 384 Кбит/с) / Любительский многоголосый
Хинди (AC3, 6 ch, 384 Кбит/с)
Субтитры: Русские
Семпл
MI
General
Unique ID : 186513479458837552356049915595066935459 (0x8C513083DE7DCA8EF369B65325C788A3)
Complete name : D:uTorrentTroe.BDRip-AVC.2016.MediaClub.mkv
Format : Matroska
Format version : Version 2
File size : 2.47 GiB
Duration : 2 h 13 min
Overall bit rate : 2 652 kb/s
Encoded date : UTC 2016-10-29T12:56:36Z
Writing application : mkvmerge v9.4.2 ('So High') 64bit
Writing library : libebml v1.3.4 + libmatroska v1.4.5 / Lavf55.12.0
Video
ID : 1
Format : AVC
Format/Info : Advanced Video Codec
Format profile : High@L4.1
Format settings, CABAC : Yes
Format settings, ReFrames : 16 frames
Codec ID : V_MPEG4/ISO/AVC
Bit rate : 1 871 kb/s
Width : 1 024 pixels
Height : 436 pixels
Display aspect ratio : 2.35:1
Frame rate mode : Variable
Color space : YUV
Chroma subsampling : 4:2:0
Bit depth : 8 bits
Scan type : Progressive
Writing library : x264 core 142 r2479 dd79a61
Encoding settings : cabac=1 / ref=16 / deblock=1:-3:-3 / analyse=0x3:0x133 / me=umh / subme=10 / psy=1 / psy_rd=2.00:0.70 / mixed_ref=1 / me_range=24 / chroma_me=1 / trellis=2 / 8x8dct=1 / cqm=0 / deadzone=21,11 / fast_pskip=1 / chroma_qp_offset=-4 / threads=12 / lookahead_threads=2 / sliced_threads=0 / nr=0 / decimate=1 / interlaced=0 / bluray_compat=0 / constrained_intra=0 / bframes=8 / b_pyramid=2 / b_adapt=2 / b_bias=0 / direct=3 / weightb=1 / open_gop=0 / weightp=2 / keyint=240 / keyint_min=24 / scenecut=40 / intra_refresh=0 / rc_lookahead=60 / rc=2pass / mbtree=1 / bitrate=1871 / ratetol=1.0 / qcomp=0.60 / qpmin=0 / qpmax=69 / qpstep=4 / cplxblur=20.0 / qblur=0.5 / vbv_maxrate=62500 / vbv_bufsize=78125 / nal_hrd=none / filler=0 / ip_ratio=1.40 / aq=1:1.20
Default : Yes
Forced : No
Color range : Limited
Color primaries : BT.709
Transfer characteristics : BT.709
Matrix coefficients : BT.709
Audio #1
ID : 2
Format : AC-3
Format/Info : Audio Coding 3
Mode extension : CM (complete main)
Format settings, Endianness : Big
Codec ID : A_AC3
Duration : 2 h 15 min
Bit rate mode : Constant
Bit rate : 384 kb/s
Channel(s) : 6 channels
Channel positions : Front: L C R, Side: L R, LFE
Sampling rate : 48.0 kHz
Frame rate : 31.250 FPS (1536 spf)
Compression mode : Lossy
Delay relative to video : -5 ms
Stream size : 373 MiB (15%)
Title : Surround
Language : Russian
Default : Yes
Forced : No
Audio #2
ID : 3
Format : AC-3
Format/Info : Audio Coding 3
Mode extension : CM (complete main)
Format settings, Endianness : Big
Codec ID : A_AC3
Duration : 2 h 15 min
Bit rate mode : Constant
Bit rate : 384 kb/s
Channel(s) : 6 channels
Channel positions : Front: L C R, Side: L R, LFE
Sampling rate : 48.0 kHz
Frame rate : 31.250 FPS (1536 spf)
Compression mode : Lossy
Delay relative to video : -5 ms
Stream size : 373 MiB (15%)
Title : Surround
Language : Hindi
Default : No
Forced : No
Text
ID : 4
Format : UTF-8
Codec ID : S_TEXT/UTF8
Codec ID/Info : UTF-8 Plain Text
Language : Russian
Default : Yes
Forced : No
Statistics Tags Issue : mkvmerge v9.4.2 ('So High') 64bit 2016-10-30 07:47:53 / mkvmerge v9.4.2 ('So High') 64bit 2016-10-30 07:47:53 / UTC 2016-10-29T12:56:36Z
FromStats_BitRate : 71
FromStats_Duration : 02:10:38.249000000
FromStats_FrameCount : 1372
FromStats_StreamSize : 69770
Menu
00:00:00.000 : :Chapter 1
00:03:57.789 : :Chapter 2
00:09:25.164 : :Chapter 3
00:12:51.705 : :Chapter 4
00:14:40.330 : :Chapter 5
00:20:14.122 : :Chapter 6
00:30:42.664 : :Chapter 7
00:31:53.372 : :Chapter 8
00:43:58.580 : :Chapter 9
00:52:24.372 : :Chapter 10
01:13:11.164 : :Chapter 11
01:17:32.247 : :Chapter 12
01:23:37.247 : :Chapter 13
01:25:21.289 : :Chapter 14
01:26:23.164 : :Chapter 15
01:32:33.664 : :Chapter 16
01:41:19.789 : :Chapter 17
01:56:47.539 : :Chapter 18
02:01:40.830 : :Chapter 19
02:07:22.497 : :Chapter 20
02:12:32.289 : :Chapter 21
Скриншоты
[reactorr.org].t73999.torrent
Торрент: Зарегистрирован [ 30-10-2016 22:28 ] · 41B7B20BC3869F7A7F977D3C641DE35FD8219023

Скачать .torrent

Скачать

13 KB

Статус: проверено
Скачан: 0 раз
Размер: 2,47 GB
terms.php
[Профиль] [ЛС]
Показать сообщения:    
Ответить на тему

Текущее время: 25-Фев 21:50

Часовой пояс: UTC + 3



Вы не можете начинать темы
Вы не можете отвечать на сообщения
Вы не можете редактировать свои сообщения
Вы не можете удалять свои сообщения
Вы не можете голосовать в опросах
Вы не можете прикреплять файлы к сообщениям
Вы можете скачивать файлы