S.P.L. Звезды судьбы 2 / SPL 2: A Time for Consequences (Чин Поу-сои) [2015, боевик, триллер, криминал, BDRip 1080p] [DeadSno & Den904]

Ответить на тему
Статистика раздачи
Размер:  11,51 GB   |    Зарегистрирован:  1 год 10 месяцев   |    Скачан:  0 раз
Сидов:  15  [  0 KB/s  ]   Личеров:  2  [  0 KB/s  ]   Подробная статистика пиров
 
     
 
 
Автор Сообщение

Crash08 ®

Пол: Мужской

Стаж: 6 лет 11 месяцев

Сообщений: 4780

Создавать темы 30-Окт-2016 22:38

[Цитировать]

S.P.L. Звезды судьбы 2 / SPL 2: A Time for Consequences
--
Год выпуска: 2015
Страна: Китай, Гонконг
Жанр: боевик, триллер, криминал
Продолжительность: 01:59:58
Перевод: Любительский двухголосый [DeadSno & Den904]
Субтитры: English-Режиссер: Чин Поу-сои
Сценарий: Лай-йин Люн, Вонг Йинг
Продюсер: Пако Вон, Уилсон Ип, Yi-Qi Chen
Оператор: Чун-то Це
Композитор: Кен Чан, Чан Квон-вин
Художник: Хорас Ма, Брюс Ю
Монтаж: Дэвид М. Ричардсон-В ролях: Тони Джа / Tony Jaa (Chatchai), Джеки Ву / Jacky Wu (Chan Chi-Kit), Саймон Ям / Simon Yam (Chan Kwok-Wah), Цзинь Чжан / Jin Zhang (в титрах: Zhang Jin) (Ko Hung), Луис Ку / Louis Koo (Hung Mun-Gong), Кэн Ло / Ken Lo (Wong Kwong), Джан Кун / Jun Kung (Hung Mun-Biu), Dominic Lam (Cheung Chun-Tung)
---Описание: Крутой гонконгский полицейский Кит загоняет в угол крупного гангстера, но тот поворачивает все в свою сторону — главный свидетель Кита исчез. Более того, Кита отправляют в тайскую тюрьму, снабдив фальшивым списком преступлений. Тюремный охранник Чай следит за тем, чтобы Кит не сбежал — дочь Чая страдает от редкой формы лейкемии, и только Кит может стать для нее подходящим донором.---Качество: BDRip 1080p
Формат: MKV
Видео кодек: AVC
Аудио кодеk: AC3/DTS
Видео: 1920x816 (2.35:1), 24.000 fps, AVC, 11.8 Mbps
Аудио: Аудио #1: AC3, 192 Kbps, 48.0 KHz, 2 ch [Rus]
Аудио #2: DTS, 1 510 Kbps, 48.0 KHz, 6 ch [Chi]

-Сэмпл-
Рейтинг
-
МедиаИнфо
Код: General
Unique ID                                : 190663145157620483402905374913395063547 (0x8F7062D4804F5801A5C6D7702C5E7AFB)
Complete name                            : SPL.2.A.Time.for.Consequences.2015.L2.BDRip.1080p.Rus.Chi.[2D].mkv
Format                                   : Matroska
Format version                           : Version 4 / Version 2
File size                                : 11.5 GiB
Duration                                 : 1h 59mn
Overall bit rate                         : 13.7 Mbps
Encoded date                             : UTC 2016-09-18 05:58:36
Writing application                      : mkvmerge v8.3.0 ('Over the Horizon') 32bit
Writing library                          : Lavf55.12.100
DURATION                                 : 01:53:17.500000000
NUMBER_OF_FRAMES                         : 930
NUMBER_OF_BYTES                          : 19748
_STATISTICS_WRITING_APP                  : mkvmerge v8.3.0 ('Over the Horizon') 32bit
_STATISTICS_WRITING_DATE_UTC             : 2016-09-18 05:58:36
_STATISTICS_TAGS                         : BPS DURATION NUMBER_OF_FRAMES NUMBER_OF_BYTES
Attachment                               : Yes
Video
ID                                       : 1
Format                                   : AVC
Format/Info                              : Advanced Video Codec
Format profile                           : Main@L4.1
Format settings, CABAC                   : Yes
Format settings, ReFrames                : 2 frames
Format settings, GOP                     : M=1, N=12
Codec ID                                 : V_MPEG4/ISO/AVC
Duration                                 : 1h 59mn
Bit rate                                 : 11.8 Mbps
Width                                    : 1 920 pixels
Height                                   : 816 pixels
Display aspect ratio                     : 2.35:1
Frame rate mode                          : Constant
Frame rate                               : 24.000 fps
Color space                              : YUV
Chroma subsampling                       : 4:2:0
Bit depth                                : 8 bits
Scan type                                : Progressive
Bits/(Pixel*Frame)                       : 0.313
Stream size                              : 9.85 GiB (86%)
Language                                 : English
Default                                  : Yes
Forced                                   : No
DURATION                                 : 01:59:58.500000000
NUMBER_OF_FRAMES                         : 172764
NUMBER_OF_BYTES                          : 10820621831
_STATISTICS_WRITING_APP                  : mkvmerge v8.3.0 ('Over the Horizon') 32bit
_STATISTICS_WRITING_DATE_UTC             : 2016-09-18 05:58:36
_STATISTICS_TAGS                         : BPS DURATION NUMBER_OF_FRAMES NUMBER_OF_BYTES
Audio #1
ID                                       : 2
Format                                   : AC-3
Format/Info                              : Audio Coding 3
Mode extension                           : CM (complete main)
Format settings, Endianness              : Big
Codec ID                                 : A_AC3
Duration                                 : 1h 59mn
Bit rate mode                            : Constant
Bit rate                                 : 192 Kbps
Channel(s)                               : 2 channels
Channel positions                        : Front: L R
Sampling rate                            : 48.0 KHz
Bit depth                                : 16 bits
Compression mode                         : Lossy
Stream size                              : 165 MiB (1%)
Title                                    : DeadSno & den904 (Студия ''Колобок")
Language                                 : Russian
Default                                  : Yes
Forced                                   : No
Audio #2
ID                                       : 3
Format                                   : DTS
Format/Info                              : Digital Theater Systems
Codec ID                                 : A_DTS
Duration                                 : 1h 59mn
Bit rate mode                            : Constant
Bit rate                                 : 1 510 Kbps
Channel(s)                               : 6 channels
Channel positions                        : Front: L C R, Side: L R, LFE
Sampling rate                            : 48.0 KHz
Bit depth                                : 16 bits
Compression mode                         : Lossy
Stream size                              : 1.27 GiB (11%)
Title                                    : Original
Language                                 : Chinese
Default                                  : No
Forced                                   : No
Text
ID                                       : 4
Format                                   : UTF-8
Codec ID                                 : S_TEXT/UTF8
Codec ID/Info                            : UTF-8 Plain Text
Language                                 : English
Default                                  : No
Forced                                   : No
-
Доп. информация
Премьера (мир): 18 июня 2015
-
Скриншоты
[reactorr.org].t74000.torrent
 СЕРЕБРЯНАЯ РАЗДАЧА! СКАЧАННОЕ ЗАСЧИТЫВАЕТСЯ ТОЛЬКО НАПОЛОВИНУ! 
Торрент: Зарегистрирован [ 30-10-2016 22:38 ] · 1D04051ED5BE15D0993EE9955041E193E83EB021

Скачать .torrent

Скачать

29 KB

Статус: проверено
Скачан: 0 раз
Размер: 11,51 GB
terms.php
[Профиль] [ЛС]
Показать сообщения:    
Ответить на тему

Текущее время: 23-Сен 12:18

Часовой пояс: UTC + 3



Вы не можете начинать темы
Вы не можете отвечать на сообщения
Вы не можете редактировать свои сообщения
Вы не можете удалять свои сообщения
Вы не можете голосовать в опросах
Вы не можете прикреплять файлы к сообщениям
Вы можете скачивать файлы