Ночной тариф / Night Fare (Жюльен Сери) [2015, триллер, BDRip 1080p] [Официальный звук]

Ответить на тему
Статистика раздачи
Размер:  5,68 GB   |    Зарегистрирован:  1 год 8 месяцев   |    Скачан:  9 раз
Сидов:  9  [  0 KB/s  ]   Личеров:  7  [  0 KB/s  ]   Подробная статистика пиров
 
     
 
 
Автор Сообщение

Crash08 ®

Пол: Мужской

Стаж: 6 лет 9 месяцев

Сообщений: 4779

Создавать темы 13-Ноя-2016 18:41

[Цитировать]

Ночной тариф / Night Fare
--
Год выпуска: 2015
Страна: Франция
Жанр: триллер
Продолжительность: 01:21:11
Перевод: Профессиональный многоголосый [Официальный звук]
Субтитры: French -Режиссер: Жюльен Сери
Сценарий: Cyril Ferment, Жюльен Сери, Паскаль Сид
Продюсер: Рафаэль Коэн, Жюльен Сери, Eric Gendarme
Оператор: Жак Баллард
Композитор: Алекс Кортес-В ролях: Джонатан Ховард / Jonathan Howard (Chris), Жонатан Демурже / Jonathan Demurger (Luc), Фанни Валетт / Fanny Valette (Ludivine), Жан-Франсуа Леног / Jean-François Lenogue (Dimitri), Джесс Лиодин / Jess Liaudin (The Driver), Эдуард Монтут / Edouard Montoute (Le policier), Закария Гуран / Zakariya Gouram (Detox), Alix Bénézech (Marie)
---Описание: Древнее поверье гласит, если человек причинил вред другому, рано или поздно на горизонте появится Мститель, который найдет и покарает его. Если это случилось, избежать смерти возможно только, если ты сам готов на время стать таким Мстителем и найти нового грешника. Двое друзей вечеринки в ночном клубе решают взять такси. Легкомысленно не заплатив за проезд, они еще не догадывались, что сели не в то такси. Таинственный водитель начинает настоящую охоту за ними, убивая всех, кто встает на пути.---Качество: BDRip 1080p
Формат: MKV
Видео кодек: AVC
Аудио кодеk: AC3/DTS
Видео: 1920x808 (2.40:1), 24.000 fps, AVC, 8 122 Kbps
Аудио: Аудио #1: AC3, 384 Kbps, 48.0 KHz, 2 ch [Rus]
Аудио #2: DTS, 1 510 Kbps, 48.0 KHz, 6 ch [Fre]

-Сэмпл-
Рейтинг
-
МедиаИнфо
Код: General
Unique ID                                : 195658835144803304709924567590401535262 (0x9332855CE8BA41C2BD9C2F6F65ACED1E)
Complete name                            : Night.Fare.2015.P.BDRip.1080p.Rus.Fre.mkv
Format                                   : Matroska
Format version                           : Version 2
File size                                : 5.68 GiB
Duration                                 : 1h 21mn
Overall bit rate                         : 10.0 Mbps
Movie name                               : Night Fare (2015) BDRip 1080p_FreeRutor
Encoded date                             : UTC 2016-11-07 20:34:31
Writing application                      : mkvmerge v5.8.0 ('No Sleep / Pillow') built on Sep  2 2012 15:37:04
Writing library                          : libebml v1.2.3 + libmatroska v1.3.0
Video
ID                                       : 1
Format                                   : AVC
Format/Info                              : Advanced Video Codec
Format profile                           : High@L4.1
Format settings, CABAC                   : Yes
Format settings, ReFrames                : 5 frames
Codec ID                                 : V_MPEG4/ISO/AVC
Duration                                 : 1h 21mn
Bit rate                                 : 8 122 Kbps
Width                                    : 1 920 pixels
Height                                   : 808 pixels
Display aspect ratio                     : 2.40:1
Frame rate mode                          : Constant
Frame rate                               : 24.000 fps
Color space                              : YUV
Chroma subsampling                       : 4:2:0
Bit depth                                : 8 bits
Scan type                                : Progressive
Bits/(Pixel*Frame)                       : 0.218
Stream size                              : 4.49 GiB (79%)
Writing library                          : x264 core 148 r2692 64f4e24
Encoding settings                        : cabac=1 / ref=5 / deblock=1:0:0 / analyse=0x3:0x113 / me=umh / subme=8 / psy=1 / psy_rd=1.00:0.00 / mixed_ref=1 / me_range=16 / chroma_me=1 / trellis=1 / 8x8dct=1 / cqm=0 / deadzone=21,11 / fast_pskip=1 / chroma_qp_offset=-2 / threads=18 / lookahead_threads=3 / sliced_threads=0 / nr=0 / decimate=1 / interlaced=0 / bluray_compat=0 / constrained_intra=0 / bframes=3 / b_pyramid=2 / b_adapt=2 / b_bias=0 / direct=3 / weightb=1 / open_gop=0 / weightp=2 / keyint=240 / keyint_min=24 / scenecut=40 / intra_refresh=0 / rc_lookahead=50 / rc=2pass / mbtree=1 / bitrate=8122 / ratetol=1.0 / qcomp=0.60 / qpmin=0 / qpmax=69 / qpstep=4 / cplxblur=20.0 / qblur=0.5 / ip_ratio=1.40 / aq=1:1.00
Language                                 : English
Default                                  : Yes
Forced                                   : No
Audio #1
ID                                       : 2
Format                                   : AC-3
Format/Info                              : Audio Coding 3
Mode extension                           : CM (complete main)
Format settings, Endianness              : Big
Codec ID                                 : A_AC3
Duration                                 : 1h 21mn
Bit rate mode                            : Constant
Bit rate                                 : 384 Kbps
Channel(s)                               : 2 channels
Channel positions                        : Front: L R
Sampling rate                            : 48.0 KHz
Bit depth                                : 16 bits
Compression mode                         : Lossy
Stream size                              : 223 MiB (4%)
Title                                    : MVO
Language                                 : Russian
Default                                  : Yes
Forced                                   : No
Audio #2
ID                                       : 3
Format                                   : DTS
Format/Info                              : Digital Theater Systems
Codec ID                                 : A_DTS
Duration                                 : 1h 21mn
Bit rate mode                            : Constant
Bit rate                                 : 1 510 Kbps
Channel(s)                               : 6 channels
Channel positions                        : Front: L C R, Side: L R, LFE
Sampling rate                            : 48.0 KHz
Bit depth                                : 24 bits
Compression mode                         : Lossy
Stream size                              : 877 MiB (15%)
Title                                    : Original
Language                                 : French
Default                                  : No
Forced                                   : No
Text
ID                                       : 4
Format                                   : UTF-8
Codec ID                                 : S_TEXT/UTF8
Codec ID/Info                            : UTF-8 Plain Text
Title                                    : Forced
Language                                 : French
Default                                  : No
Forced                                   : No
Menu
00:00:00.000                             : en:00:00:00.000
00:05:27.000                             : en:00:05:27.000
00:12:13.833                             : en:00:12:13.833
00:17:09.000                             : en:00:17:09.000
00:23:50.000                             : en:00:23:50.000
00:31:41.000                             : en:00:31:41.000
00:39:29.000                             : en:00:39:29.000
00:43:53.000                             : en:00:43:53.000
00:50:32.625                             : en:00:50:32.625
00:54:50.833                             : en:00:54:50.833
01:04:39.958                             : en:01:04:39.958
01:14:59.500                             : en:01:14:59.500
-
Доп. информация
Премьера (мир): 17 июля 2015
-
Скриншоты
[reactorr.org].t74050.torrent
 СЕРЕБРЯНАЯ РАЗДАЧА! СКАЧАННОЕ ЗАСЧИТЫВАЕТСЯ ТОЛЬКО НАПОЛОВИНУ! 
Торрент: Зарегистрирован [ 13-11-2016 18:41 ] · 3ACF5BF817F6673A79FF32F4B03924371DD8A010

Скачать .torrent

Скачать

29 KB

Статус: проверено
Скачан: 9 раз
Размер: 5,68 GB
terms.php
[Профиль] [ЛС]
Показать сообщения:    
Ответить на тему

Текущее время: 22-Июл 08:52

Часовой пояс: UTC + 3



Вы не можете начинать темы
Вы не можете отвечать на сообщения
Вы не можете редактировать свои сообщения
Вы не можете удалять свои сообщения
Вы не можете голосовать в опросах
Вы не можете прикреплять файлы к сообщениям
Вы можете скачивать файлы