РЭД / RED (Роберт Швентке) [2010 г., боевик, триллер, комедия, криминал, BDRip, 1080p] Dub + AVO + AVO Sub Rus + Original Eng

Ответить на тему
Статистика раздачи
Размер:  15,18 GB   |    Зарегистрирован:  1 год 7 месяцев   |    Скачан:  1 раз

Полного источника не было: 1 месяц 28 дней

 
     
 
 
Автор Сообщение

RazBoyNik ®

Пол: Мужской

Стаж: 4 года 10 месяцев

Сообщений: 59

Создавать темы 25-Янв-2017 18:01

[Цитировать]

-РЭД / RED-- Производство: США, DC Entertainment, Summit Entertainment
Год выпуска: 2010 г.
Жанр: боевик, триллер, комедия, криминал
Продолжительность: 01:51:10
Мировая премьера: 29 сентября 2010
Российская премьера: 14 октября 2010, «Парадиз»
Возраст: 12+ (зрителям, достигшим 12 лет)
Рейтинг MPAA: PG-13 (детям до 13 лет просмотр нежелателен)
Перевод: Профессиональный (полное дублирование)
Перевод 2: Авторский (одноголосый, закадровый) [А. Гаврилов]
Перевод 3: Авторский (одноголосый, закадровый) [Д. Есарев]
Перевод 4: Авторский (одноголосый, закадровый) [А. Наследников]
Перевод 5: Авторский (одноголосый, закадровый) Английский [Оригинал]
Cубтитры: русские
Оригинальный аудиопоток: английский
Режиссер: Роберт Швентке-В ролях: Брюс Уиллис, Джон Малкович, Морган Фриман, Хелен Миррен, Мэри-Луиз Паркер, Карл Урбан, Брайан Кокс, Ричард Дрейфусс, Ребекка Пиджон, Крис Оуенс-Описание: Фрэнк Мозес, экс-агент супергруппы ЦРУ, живет теперь мирной и тихой жизнью. Но прошлое настигает его: как-то утром загадочный киллер пытается лишить его жизни. Опытный Фрэнк, конечно, сумел увернуться от пули, но сразу понял, что дело «табак». Кто же поможет справиться с командой ликвидаторов? Конечно, бывшие напарники: харизматичный Джо Мэтисон и параноик Марвин Боггс. Прекрасный повод тряхнуть стариной!-КиноПоиск
Качество видео: BDRip
Формат видео: MKV
Стандарт разрешения: 1080p
Видео кодек: H.264
Аудио кодек: DTS
Видео: AVC/H.264, 12.0 Mbps, 1920x800
Аудио: DTS, 5.1, 1509 Kbps - Русский (DUB, Blu-ray RUS)
Аудио #2: DTS, 5.1, 1509 Kbps - Русский (AVO, А. Гаврилов)
Аудио #3: DTS, 5.1, 1509 Kbps - Русский (AVO, Д. Есарев)
Аудио #4: DTS, 5.1, 1509 Kbps - Русский [А. Наследников]
Аудио #5: DTS, 5.1, 1509 Kbps - Английский [Оригинал]
Cубтитры: русские
Формат субтитров: softsub (SRT)
Media Info
Общее
Полное имя : РЭД.mkv
Формат : Matroska
Версия формата : Version 1
Размер файла : 15,2 Гбайт
Продолжительность : 1 ч. 51 м.
Общий поток : 19,5 Мбит/сек
Дата кодирования : UTC 2017-01-23 09:36:23
Программа кодирования : mkvmerge v2.4.1 ('Use Me') built on Dec 5 2008 18:30:05
Библиотека кодирования : libebml v0.7.7 + libmatroska v0.8.1
Видео
Идентификатор : 1
Формат : AVC
Формат/Информация : Advanced Video Codec
Профиль формата : High@L4.1
Параметр CABAC формата : Да
Параметр ReFrames формата : 5 кадров
Идентификатор кодека : V_MPEG4/ISO/AVC
Продолжительность : 1 ч. 51 м.
Битрейт : 12,0 Мбит/сек
Ширина : 1920 пикселей
Высота : 800 пикселей
Соотношение сторон : 2,40:1
Режим частоты кадров : Постоянный
Частота кадров : 23,976 (24000/1001) кадра/сек
Цветовое пространство : YUV
Субдискретизация насыщенности : 4:2:0
Битовая глубина : 8 бит
Тип развёртки : Прогрессивная
Бит/(Пиксели*Кадры) : 0.326
Размер потока : 9,02 Гбайт (59%)
Заголовок : РЭД (2010)
Библиотека кодирования : x264 core 112 r1867 22bfd31
Настройки программы : cabac=1 / ref=5 / deblock=1:-3:-3 / analyse=0x3:0x113 / me=tesa / subme=10 / psy=1 / psy_rd=1.00:0.00 / mixed_ref=1 / me_range=16 / chroma_me=1 / trellis=2 / 8x8dct=1 / cqm=0 / deadzone=21,11 / fast_pskip=0 / chroma_qp_offset=-2 / threads=12 / sliced_threads=0 / nr=0 / decimate=0 / interlaced=0 / constrained_intra=0 / bframes=8 / b_pyramid=2 / b_adapt=2 / b_bias=0 / direct=3 / weightb=1 / open_gop=0 / weightp=2 / keyint=250 / keyint_min=23 / scenecut=40 / intra_refresh=0 / rc=2pass / mbtree=0 / bitrate=12000 / ratetol=1.0 / qcomp=0.75 / qpmin=0 / qpmax=51 / qpstep=4 / cplxblur=20.0 / qblur=0.5 / ip_ratio=1.40 / pb_ratio=1.30 / aq=1:0.90
Язык : English
Default : Да
Forced : Нет
Аудио #1
Идентификатор : 2
Формат : DTS
Формат/Информация : Digital Theater Systems
Режим : 16
Параметр Endianness формата : Big
Идентификатор кодека : A_DTS
Продолжительность : 1 ч. 51 м.
Вид битрейта : Постоянный
Битрейт : 1509 Кбит/сек
Каналы : 6 каналов
Расположение каналов : Front: L C R, Side: L R, LFE
Частота : 48,0 КГц
Частота кадров : 93,750 кадра/сек (512 spf)
Битовая глубина : 16 бит
Метод сжатия : С потерями
Размер потока : 1,17 Гбайт (8%)
Заголовок : DTS (Дублированный) Blu-ray RUS
Язык : Russian
Default : Да
Forced : Нет
Аудио #2
Идентификатор : 3
Формат : DTS
Формат/Информация : Digital Theater Systems
Режим : 16
Параметр Endianness формата : Big
Идентификатор кодека : A_DTS
Продолжительность : 1 ч. 51 м.
Вид битрейта : Постоянный
Битрейт : 1509 Кбит/сек
Каналы : 6 каналов
Расположение каналов : Front: L C R, Side: L R, LFE
Частота : 48,0 КГц
Частота кадров : 93,750 кадра/сек (512 spf)
Битовая глубина : 24 бит
Метод сжатия : С потерями
Размер потока : 1,17 Гбайт (8%)
Заголовок : DTS (Одноголосый) А. Гаврилов
Язык : Russian
Default : Нет
Forced : Нет
Аудио #3
Идентификатор : 4
Формат : DTS
Формат/Информация : Digital Theater Systems
Режим : 16
Параметр Endianness формата : Big
Идентификатор кодека : A_DTS
Продолжительность : 1 ч. 51 м.
Вид битрейта : Постоянный
Битрейт : 1509 Кбит/сек
Каналы : 6 каналов
Расположение каналов : Front: L C R, Side: L R, LFE
Частота : 48,0 КГц
Частота кадров : 93,750 кадра/сек (512 spf)
Битовая глубина : 24 бит
Метод сжатия : С потерями
Размер потока : 1,17 Гбайт (8%)
Заголовок : DTS (Одноголосый) Д. Есарев
Язык : Russian
Default : Нет
Forced : Нет
Аудио #4
Идентификатор : 5
Формат : DTS
Формат/Информация : Digital Theater Systems
Режим : 16
Параметр Endianness формата : Big
Идентификатор кодека : A_DTS
Продолжительность : 1 ч. 51 м.
Вид битрейта : Постоянный
Битрейт : 1509 Кбит/сек
Каналы : 6 каналов
Расположение каналов : Front: L C R, Side: L R, LFE
Частота : 48,0 КГц
Частота кадров : 93,750 кадра/сек (512 spf)
Битовая глубина : 24 бит
Метод сжатия : С потерями
Размер потока : 1,17 Гбайт (8%)
Заголовок : DTS (Одноголосый) А. Наследников
Язык : Russian
Default : Нет
Forced : Нет
Аудио #5
Идентификатор : 6
Формат : DTS
Формат/Информация : Digital Theater Systems
Режим : 16
Параметр Endianness формата : Big
Идентификатор кодека : A_DTS
Продолжительность : 1 ч. 51 м.
Вид битрейта : Постоянный
Битрейт : 1509 Кбит/сек
Каналы : 6 каналов
Расположение каналов : Front: L C R, Side: L R, LFE
Частота : 48,0 КГц
Частота кадров : 93,750 кадра/сек (512 spf)
Битовая глубина : 24 бит
Метод сжатия : С потерями
Размер потока : 1,17 Гбайт (8%)
Заголовок : DTS (Оригинал)
Язык : English
Default : Нет
Forced : Нет
Текст #1
Идентификатор : 7
Формат : UTF-8
Идентификатор кодека : S_TEXT/UTF8
Идентификатор кодека/Информация : UTF-8 Plain Text
Заголовок : Русские
Язык : Russian
Default : Нет
Forced : Нет
Текст #2
Идентификатор : 8
Формат : UTF-8
Идентификатор кодека : S_TEXT/UTF8
Идентификатор кодека/Информация : UTF-8 Plain Text
Заголовок : Английские
Язык : English
Default : Нет
Forced : Нет
Меню
00:00:00.000 : en:1. The Check Is in the Mail
00:07:11.264 : en:2. They Know I Like You
00:14:03.426 : en:3. Total Black Out
00:20:53.461 : en:4. You Really Are CIA
00:24:06.570 : en:5. Not My Best First Date
00:29:10.457 : en:6. Tagged Him RED
00:35:56.571 : en:7. She Called Me An Old Man
00:43:26.687 : en:8. Hot Here for the Vodka
00:49:12.533 : en:9. Breaking Into the CIA
00:55:56.937 : en:10. Getting the Band Back Together
01:03:12.122 : en:11. A Little Girl Time
01:09:42.011 : en:12. How's Retirement?
01:15:24.270 : en:13. You're At My House
01:20:52.181 : en:14. Vice President Stanton
01:27:14.104 : en:15. Secondary Exit
01:33:04.788 : en:16. I Remember the Secret Service Being Tougher
01:38:31.906 : en:17. Wanna Get Pancakes?
01:43:16.649 : en:18. Greetings From Moldova
Скриншоты



[reactorr.org].t74215.torrent
 СЕРЕБРЯНАЯ РАЗДАЧА! СКАЧАННОЕ ЗАСЧИТЫВАЕТСЯ ТОЛЬКО НАПОЛОВИНУ! 
Торрент: Зарегистрирован [ 25-01-2017 18:01 ] · 7AD5888C942B6DD0BFC46B06D658C28A227D9F29

Скачать .torrent

Скачать

77 KB

Статус: проверено
Скачан: 1 раз
Размер: 15,18 GB
terms.php
[Профиль] [ЛС]
Показать сообщения:    
Ответить на тему

Текущее время: 24-Сен 09:30

Часовой пояс: UTC + 3



Вы не можете начинать темы
Вы не можете отвечать на сообщения
Вы не можете редактировать свои сообщения
Вы не можете удалять свои сообщения
Вы не можете голосовать в опросах
Вы не можете прикреплять файлы к сообщениям
Вы можете скачивать файлы