Доктор Стрэндж / Doctor Strange (2016) DVDScr [Line]

Ответить на тему
Статистика раздачи
Размер:  2,05 GB   |    Зарегистрирован:  1 год 7 месяцев   |    Скачан:  5 раз

Полного источника не было: 1 год 5 месяцев

 
     
 
 
Автор Сообщение

Crash08 ®

Пол: Мужской

Стаж: 6 лет 11 месяцев

Сообщений: 4780

Создавать темы 06-Фев-2017 20:09

[Цитировать]

Доктор Стрэндж / Doctor Strange (2016) DVDScr -[poster]http://s017.radikal.ru/i407/1610/60/d9093e6dc3bd.jpg[/poster]
Производство: США, Marvel Studios Inc., Walt Disney Studios Motion Pictures
Жанр: Фантастика, Фэнтези, Боевик, Приключения
Режиссер: Скотт Дерриксон
Продюсер: Виктория Алонсо, Стивен Бруссар, Луис Д’Эспозито
Актеры: Бенедикт Камбербэтч, Тильда Суинтон, Мадс Миккельсен, Чиветель Эджиофор, Рэйчел МакАдамс, Бенедикт Вонг, Майкл Стулбарг, Бенджамин Брэтт, Скотт Эдкинс, Зара Питиан
Описание:
Страшная автокатастрофа поставила крест на карьере успешного нейрохирурга Доктора Стрэнджа. Отчаявшись, он отправляется в путешествие в поисках исцеления и открывает в себе невероятные способности к трансформации пространства и времени. Теперь он — связующее звено между параллельными измерениями, а его миссия — защищать жителей Земли и противодействовать Злу, какое бы обличие оно ни принимало.

Возраст: 16+ (зрителям, достигшим 16 лет)
Рейтинг MPAA: PG-13 (детям до 13 лет просмотр нежелателен)
Дата мировой премьеры: 20 октября 2016
Дата российской премьеры: 31 октября 2016, «WDSSPR»
Продолжительность: 01:54:34
Качество видео: DVDScr
Перевод: Дублированный (Чистый звук)
Вид субтитров: Отсутствуют
Реклама: Присутствуют голосовые и текстовые вставки рекламы
Видео: XviD, 720x304, 2095 kbps
Аудио: 48 kHz, AC3 Dolby Digital, 2/0 (L,R) ch, ~448 kbps
Mediainfo:
Общее
Полное имя : D:\Доктор.Стрэндж.2016.DVDScr.NNMClub.avi
Формат : AVI
Формат/Информация : Audio Video Interleave
Профиль формата : OpenDML
Размер файла : 2,05 Гбайт
Продолжительность : 1 ч. 54 м.
Общий поток : 2556 Кбит/сек
Программа кодирования : VirtualDubMod 1.5.10.2 (build 2540/release)
Библиотека кодирования : VirtualDub build 35491/release
Видео
Идентификатор : 0
Формат : MPEG-4 Visual
Профиль формата : Advanced Simple@L5
Параметр BVOP формата : 2
Параметр QPel формата : Нет
Параметр GMC формата : Без точки перехода
Параметр матрицы формата : Default (MPEG)
Идентификатор кодека : XVID
Идентификатор кодека/Подсказка : XviD
Продолжительность : 1ч. 54 м.
Битрейт : 2095 Кбит/сек
Ширина : 720 пикселей
Высота : 304 пикселя
Соотношение сторон : 2,35:1
Частота кадров : 23,976 (24000/1001) кадра/сек
Цветовое пространство : YUV
Субдискретизация насыщенности : 4:2:0
Битовая глубина : 8 бит
Тип развёртки : Прогрессивная
Метод сжатия : С потерями
Бит/(Пиксели*Кадры) : 0.399
Размер потока : 1,68 Гбайт (82%)
Библиотека кодирования : XviD 1.2.1 (UTC 2008-12-04)
Аудио
Идентификатор : 1
Формат : AC-3
Формат/Информация : Audio Coding 3
Расширение режима : CM (complete main)
Параметр Endianness формата : Big
Идентификатор кодека : 2000
Продолжительность : 1 ч. 54 м.
Вид битрейта : Постоянный
Битрейт : 448 Кбит/сек
Каналы : 2 канала
Расположение каналов : Front: L R
Частота : 48,0 КГц
Частота кадров : 31,250 кадров/сек (1536 spf)
Метод сжатия : С потерями
Задержка видео : 11 мс.
Размер потока : 367 Мбайт (18%)
Выравнивание : Разделение по промежуткам
Продолжительность промежутка : 42 мс. (1,00 видеокадр)
Время предзагрузки промежутка : 500 мс.
Скриншоты:
Время раздачи: 24/7 (до появления первых 3-5 скачавших)
[reactorr.org].t74238.torrent
Торрент: Зарегистрирован [ 06-02-2017 20:09 ] · 236A711173D96B1F90C7B269D1FC8CA0941CBBF8

Скачать .torrent

Скачать

11 KB

Статус: T временная
Скачан: 5 раз
Размер: 2,05 GB
terms.php
[Профиль] [ЛС]
Показать сообщения:    
Ответить на тему

Текущее время: 24-Сен 09:33

Часовой пояс: UTC + 3



Вы не можете начинать темы
Вы не можете отвечать на сообщения
Вы не можете редактировать свои сообщения
Вы не можете удалять свои сообщения
Вы не можете голосовать в опросах
Вы не можете прикреплять файлы к сообщениям
Вы можете скачивать файлы