О чем еще говорят мужчины (Дмитрий Дьяченко) [2011, комедия, DVDRip]

Ответить на тему
Статистика раздачи
Размер:  1,37 GB   |    Зарегистрирован:  4 года 8 месяцев   |    Скачан:  0 раз

Полного источника не было: Никогда

 
     
 
 
Автор Сообщение

Crash08 ®

Пол: Мужской

Стаж: 5 лет 10 месяцев

Сообщений: 4789

Создавать темы 29-Янв-2012 17:43

[Цитировать]

О чем еще говорят мужчины
Жанр: комедия
Год выпуска: 2011
Продолжительность: 01:35:00
Режиссёр: Дмитрий Дьяченко
В ролях: Леонид Барац, Ростислав Хайт, Александр Демидов, Камиль Ларин, Алёна Бабенко, Екатерина Вилкова, Владимир Меньшов, Максим Виторган, Елена Подкаминская, Константин Чепурин
Описание: Продолжение популярной комедии 2010 года «О чём говорят мужчины». Действие фильма происходит в Москве, 31 декабря, в офисе рекламного агентства, которым руководит Саша Демидов, и в квартире Камиля. Четверо вполне состоятельных сорокалетних мужчин успели дать жизнь трём детям (из первого фильма мы знаем, что у Лёши есть две дочки, а у Камиля — сын). А остальная их жизнь заполнена обманом близких им женщин, своих друзей и самих себя. Весь фильм герои рассказывают друг другу о том, как им хорошо/плохо/непонятно с любовницами, как они из-за этого радуются/переживают/страдают или переживают из-за того, что не страдают.
Семпл: http://multi-up.com/638805
Качество видео: DVDRip
Формат видео: AVI
Видео: 720x304 (2.37:1), 25 fps, XviD build 64 ~1617 kbps avg, 0.29 bit/pixel
Аудио: 48 kHz, AC3 Dolby Digital, 3/2 (L,C,R,l,r) + LFE ch, ~448.00 kbps avg
Отчет MediaInfo
Полное имя : Ochem.eshe.govoriat.muschinu.2011.O.DVDRip.1400Mb.avi
Формат : AVI
Формат/Информация : Audio Video Interleave
Размер файла : 1,37 Гбайт
Продолжительность : 1 ч. 34 м.
Общий поток : 2075 Кбит/сек
Программа кодирования : VirtualDubMod 1.5.10.3 | www.virtualdub-fr.org || (build 2550/release)
Библиотека кодирования : VirtualDubMod build 2550/release
Видео
Идентификатор : 0
Формат : MPEG-4 Visual
Профиль формата : Advanced Simple@L5
Параметр BVOP формата : 1
Параметр QPel формата : Нет
Параметр GMC формата : Без точки перехода
Параметр матрицы формата : Default (MPEG)
Идентификатор кодека : XVID
Идентификатор кодека/Подсказка : XviD
Продолжительность : 1 ч. 34 м.
Битрейт : 1617 Кбит/сек
Ширина : 720 пикселей
Высота : 304 пикселя
Соотношение сторон : 2,35:1
Частота кадров : 25,000 кадров/сек
Цветовое пространство : YUV
Субдискретизация насыщенности : 4:2:0
Битовая глубина : 8 бит
Тип развёртки : Прогрессивная
Метод сжатия : С потерями
Бит/(Пиксели*Кадры) : 0.296
Размер потока : 1,07 Гбайт (78%)
Библиотека кодирования : XviD 64
Аудио
Идентификатор : 1
Формат : AC-3
Формат/Информация : Audio Coding 3
Расширение режима : CM (complete main)
Идентификатор кодека : 2000
Продолжительность : 1 ч. 34 м.
Вид битрейта : Постоянный
Битрейт : 448 Кбит/сек
Каналы : 6 каналов
Расположение каналов : Front: L C R, Side: L R, LFE
Частота : 48,0 КГц
Битовая глубина : 16 бит
Метод сжатия : С потерями
Размер потока : 303 Мбайт (22%)
Выравнивание : Разделение по промежуткам
Продолжительность промежутка : 40 мс. (1,00 видеокадр)
Время предзагрузки промежутка : 500 мс.
Скриншот c названием фильма
Скриншоты
[reactorr.org].t7726.torrent
Торрент: Зарегистрирован [ 16-12-2012 19:44 ] · DE86EA606FEAE79C6D3B86419FCCAE364DD268F1

Скачать .torrent

Скачать

110 KB

Статус: проверено
Скачан: 0 раз
Размер: 1,37 GB
terms.php
[Профиль] [ЛС]
Показать сообщения:    
Ответить на тему

Текущее время: 23-Авг 07:17

Часовой пояс: UTC + 3



Вы не можете начинать темы
Вы не можете отвечать на сообщения
Вы не можете редактировать свои сообщения
Вы не можете удалять свои сообщения
Вы не можете голосовать в опросах
Вы не можете прикреплять файлы к сообщениям
Вы можете скачивать файлы