Вечер-реквием памяти хоккеистов команды "Локомотив" [08.09.2011, Хоккей, SATRip]

Ответить на тему
Статистика раздачи
Размер:  1,05 GB   |    Зарегистрирован:  6 лет 6 месяцев   |    Скачан:  0 раз
Сидов:  1  [  0 KB/s  ]   Подробная статистика пиров
 
     
 
 
Автор Сообщение

Crash08 ®

Пол: Мужской

Стаж: 7 лет

Сообщений: 4780

Создавать темы 07-Апр-2012 17:46

[Цитировать]

Вечер-реквием памяти хоккеистов команды "Локомотив"
Вид спорта: Хоккей
Дата/Год выпуска: 08.09.2011
Язык комментариев: Русский
Описание: Вечер-реквием памяти хоккеистов команды "Локомотив" на "Минск Арена".
Архивные интервью с Александром Вьюхиным и Яном Мареком.
Автор рипа/записи: GREYCAT
Качество: SATRip
Формат видео: TS
Видео: MPEG Video at 2937 Кбит/сек 704 x 576 (1.333) at 25.000 fps
Аудио: MPEG Audio at 192 Кбит/сек 2 канала, 48,0 КГц
Продолжительность 45:38
Mediainfo
Общее
Идентификатор : 13 (0xD)
Полное имя : H:\UPLOAD\Локо\Вечер-реквием.ts
Формат : MPEG-TS
Размер файла : 1,05 Гбайт
Продолжительность : 45 м.
Общий поток : 3294 Кбит/сек
Видео
Идентификатор : 321 (0x141)
Идентификатор меню : 13101 (0x332D)
Формат : MPEG Video
Версия формата : Version 2
Профиль формата : Main@Main
Параметр BVOP формата : Да
Параметр матрицы формата : Выборочная
Параметры GOP формата : M=3, N=24
Идентификатор кодека : 2
Продолжительность : 45 м.
Вид битрейта : Переменный
Битрейт : 2937 Кбит/сек
Номинальный битрейт : 15,0 Мбит/сек
Ширина : 704 пикс.
Высота : 576 пикс.
Соотношение сторон : 4:3
Частота кадров : 25,000 кадр/сек
Стандарт вещания : PAL
Цветовое пространство : YUV
Подвыборка цветности : 4:2:0
Битовая глубина : 8 бит
Тип развёртки : Прогрессивная
Порядок развёртки : Верхнее поле первое
Метод сжатия : С потерями
Бит/(Пиксели*Кадры) : 0.290
Размер потока : 959 Мбайт (89%)
Аудио
Идентификатор : 401 (0x191)
Идентификатор меню : 13101 (0x332D)
Формат : MPEG Audio
Версия формата : Version 1
Профиль формата : Layer 2
Идентификатор кодека : 4
Продолжительность : 45 м.
Вид битрейта : Постоянный
Битрейт : 192 Кбит/сек
Каналы : 2 канала
Частота : 48,0 КГц
Метод сжатия : С потерями
Задержка видео : 99 мс.
Размер потока : 62,7 Мбайт (6%)
Язык : Russian
Язык, дополнительно : Clean effects
Светлая память...
[reactorr.org].t9272.torrent
Торрент: Зарегистрирован [ 07-04-2012 17:46 ] · 2883BCD0FCCDDDE26F66D85C6737BC80655BAF0B

Скачать .torrent

Скачать

11 KB

Статус: проверено
Скачан: 0 раз
Размер: 1,05 GB
terms.php
[Профиль] [ЛС]
Показать сообщения:    
Ответить на тему

Текущее время: 16-Окт 20:40

Часовой пояс: UTC + 3



Вы не можете начинать темы
Вы не можете отвечать на сообщения
Вы не можете редактировать свои сообщения
Вы не можете удалять свои сообщения
Вы не можете голосовать в опросах
Вы не можете прикреплять файлы к сообщениям
Вы можете скачивать файлы