Зона 88 / Area 88 [Movie] [RUS] [1985 г., Романтика, драма, сёнен] [1 x DVD5]

Ответить на тему
Статистика раздачи
Размер:  4,32 GB   |    Зарегистрирован:  5 лет 3 месяца   |    Скачан:  0 раз
Сидов:  2  [  0 KB/s  ]   Подробная статистика пиров
 
     
 
 
Автор Сообщение

Гость ®

Пол: Не указан

Создавать темы 11-Июл-2013 16:45

[Цитировать]

Зона 88 / Area 88
Страна: Япония
Год выпуска: 1985 г.
Жанр: Романтика, драма, сёнен
Тип: Полнометражный фильм
Продолжительность: 1:35:00
Перевод: Двухголосный (DVD Land)
Режиссер: Хисаюки Ториуми / 鳥海 久幸
Студия: Studio Pierrot
Издательство: DVD Land
Кол-во DVD: 1x DVD5 Описание: В основе сюжета лежит история молодого пилота Шина Казамы, который в результате предательства лучшего друга, попадает на авиационную базу для наёмников под названием "Зона 88". Шин оказывается втянутым в вооруженный конфликт, разгорающейся на территории страны, где происходят события фильма. Каждый день главному герою приходится лишать людей жизни, и лишь воспоминания о возлюбленной не дают ему превратится в бездушную машину для убийств. Но для того, чтобы снова увидеться с любимой девушкой Шину нужно заплатить 1.5 млн. долларов, или пройти сквозь адское пламя войны длиной в три года. В течении фильма главный герой не раз задумывается, для чего он продолжает убивать снова и снова: способ ли это выжить или в нём, как и у большинства наемников, пребывающих в "Зоне 88", зарождается страсть к убийству.
В основу аниме легла оригинальная манга Кауро Шинтани "Зона 88", которая произвела настоящий фурор в Японии и получила престижную награду Shogaku-Kan Manga Award за вклад в развитие жанра сёнен.

Доп. информация: Режиссёр: Хисаюки Ториуми. Автор оригинала: Кауро Шинтани. Аниматор: Тосиясу Окада. Оператор: Казунори Хасимото. Композитор: Ичиро Нитта. Продюсер: Уджи Нунокава. (Дополнительно на дисках: Трейлеры будущих релизов)
WorldArt: http://www.world-art.ru/animation/animation.php?id=363 Качество: DVD5 All Region
Формат экрана: 4:3
Система / Разрешение: MPEG-2, PAL, 720x576 (анаморф @768x576) VBR, Auto Pan&Scan, 25.000fps, Color space: YUV 8bit
Средний битрейт: 3500Kbps
Аудио: Dolby Digital AC-3, 192 Kbps, 2ch, 48.0KHz, 16 bits, Язык: Русский.
Субтитры: Отсутствуют.
Семпл: http://yadi.sk/d/wp6bG3303JN1w
DVDInfo


VOB file Info
General
Complete name : E:\VIDEO_TS\VTS_01_1.VOB
Format : MPEG-PS
File size : 9.79 MiB
Duration : 14s 912ms
Overall bit rate : 5 505 Kbps
Video
ID : 224 (0xE0)
Format : MPEG Video
Format version : Version 2
Format profile : Main@Main
Format settings, BVOP : Yes
Format settings, Matrix : Default
Format settings, GOP : Variable
Duration : 40ms
Bit rate : 5 203 Kbps
Width : 720 pixels
Height : 576 pixels
Display aspect ratio : 4:3
Frame rate : 25.000 fps
Standard : PAL
Color space : YUV
Chroma subsampling : 4:2:0
Bit depth : 8 bits
Scan type : Interlaced
Scan order : Bottom Field First
Compression mode : Lossy
Bits/(Pixel*Frame) : 0.502
Stream size : 25.4 KiB (0%)
Audio
ID : 189 (0xBD)-128 (0x80)
Format : AC-3
Format/Info : Audio Coding 3
Mode extension : CM (complete main)
Format settings, Endianness : Big
Muxing mode : DVD-Video
Duration : 14s 912ms
Bit rate mode : Constant
Bit rate : 192 Kbps
Channel(s) : 2 channels
Channel positions : Front: L R
Sampling rate : 48.0 KHz
Bit depth : 16 bits
Compression mode : Lossy
Delay relative to video : -21ms
Stream size : 350 KiB (3%)
Список эпизодов
Это полнометражный фильм (компиляция OVA)
Скриншоты
Скриншоты меню
CRC Logfile
Данный лог свидетельствует о том, что наличие ошибок при копирование или записи на DVD не выявлено! Настоятельно рекомендуем проверить своё внешнее устройство чтения носителей во избежании ошибок.
Понравилось аниме? Не забудьте сказать за мой труд для Вас.
Не уходите с раздачи. Onegaishimasu!
[reactorr.org].t30029.torrent
Торрент: Зарегистрирован [ 11-07-2013 16:45 ] · 6B7B378891E3558C42123ECEB877089526F19571

Скачать .torrent

Скачать

23 KB

Статус: проверено
Скачан: 0 раз
Размер: 4,32 GB
terms.php
 
Показать сообщения:    
Ответить на тему

Текущее время: 15-Окт 14:50

Часовой пояс: UTC + 3



Вы не можете начинать темы
Вы не можете отвечать на сообщения
Вы не можете редактировать свои сообщения
Вы не можете удалять свои сообщения
Вы не можете голосовать в опросах
Вы не можете прикреплять файлы к сообщениям
Вы можете скачивать файлы