Ангелы смерти / Bakuretsu Tenshi / Burst Angel [TV] [1-24 из 24] [RUS] [2004 г., Меха, этти, киберпанк] [5 x DVD5]

Ответить на тему
Статистика раздачи
Размер:  21,31 GB   |    Зарегистрирован:  5 лет 3 месяца   |    Скачан:  0 раз
Сидов:  1  [  0 KB/s  ]   Личеров:  1  [  0 KB/s  ]   Подробная статистика пиров
 
     
 
 
Автор Сообщение

.MAX. ®

Пол: Не указан

Стаж: 10 лет

Сообщений: 1

Создавать темы 12-Июл-2013 00:35

[Цитировать]

Ангелы смерти / Bakuretsu Tenshi / Burst Angel
Страна: Япония
Год выпуска: 2004 г.
Жанр: Меха, этти, киберпанк
Тип: TV
Продолжительность: 24 эп, ~25 мин.
Перевод: Многоголосный (Mega-Anime)
Режиссер: Коити Охата / 大畑 晃一
Студия:
Издательство: Mega Anime
Кол-во DVD: 5x DVD5 Описание: Это год 20ХХ.
В качестве меры безопасности общественного порядка правительство разрешает обычным гражданам носить оружие.
Город Токио постепенно начинает погружаться в хаос, каждый район контролирует та или иная преступная группировка. Люди живут в постоянном страхе перед все возрастающим насилием.
Даже новосозданное полицейское спецподразделение РАПТ не в силах справиться с приближающейся тьмой.
И тут на город снисходят ангелы.
Ангелы Смерти.
Четыре девушки: Джо, Мег, Сэй и Эми.
Сэй - планирование, разработка и контроль. Мег - огневая поддержка и прикрытие. Эми - компьютерная поддержка. Джо - стрелок и пилот боевого меха "Джанго", специально разработанного для убийств, чьей огневой мощи мало кто может противостоять.
Что это за таинственная группировка.
Откуда она взялась и какие цели преследует?
Это остаётся загадкой...

Доп. информация: Режиссёр: Коити Охата. Композитор: Фумихико Симо. Дизайн персонажей: Угецу Хакуа. Анимация персонажей: Осаму Хориути, Канетоси Камимото. Сюжет и производство: Гонзо. Планирование: Проект Бакутен, GDH K.K., IMAGICA Corp.
Русская версия: ООО "Мега-Аниме". Продюссирование: Жикаренцев александр, Бондровский Максим, Гришин Антон, Гришин Андрей. Технический директор: Сергей Кухарьков. Перевод: Дмитрий Оленин. (Дополнительно на дисках: Трейлеры будущих релизов)

Официальный сайт: http://www.mega-anime.ru
WorldArt: http://www.world-art.ru/animation/animation.php?id=2629 Качество: DVD5 All Region
Формат экрана: 16:9
Система / Разрешение: MPEG-2, NTSC, 720x480 (анаморф @853->480) VBR, Auto Letterboxed, 29.970 fps, Color space: YUV 8bit
Средний битрейт: 4000Kbps
Аудио: Dolby Digital AC-3, 192 Kbps, 2ch, 48.0KHz, 16 bits, Язык: Русский.
Субтитры: Отсутствуют.
Семпл: http://yadi.sk/d/Fqs6sfnr3Hltm
DVDInfo


VOB file Info
General
Complete name : E:\VIDEO_TS\VTS_01_1.VOB
Format : MPEG-PS
File size : 737 MiB
Duration : 24mn 0s
Overall bit rate mode : Variable
Overall bit rate : 4 291 Kbps
Video
ID : 224 (0xE0)
Format : MPEG Video
Format version : Version 2
Format profile : Main@Main
Format settings, BVOP : Yes
Format settings, Matrix : Custom
Format settings, GOP : Variable
Duration : 24mn 0s
Bit rate mode : Variable
Bit rate : 4 013 Kbps
Maximum bit rate : 8 000 Kbps
Width : 720 pixels
Height : 480 pixels
Display aspect ratio : 16:9
Frame rate : 29.970 fps
Standard : NTSC
Color space : YUV
Chroma subsampling : 4:2:0
Bit depth : 8 bits
Scan type : Interlaced
Scan order : Bottom Field First
Compression mode : Lossy
Bits/(Pixel*Frame) : 0.387
Stream size : 689 MiB (94%)
Audio
ID : 189 (0xBD)-128 (0x80)
Format : AC-3
Format/Info : Audio Coding 3
Format profile : Dolby Digital
Mode extension : CM (complete main)
Format settings, Endianness : Big
Muxing mode : DVD-Video
Duration : 24mn 0s
Bit rate mode : Constant
Bit rate : 192 Kbps
Channel(s) : 2 channels
Channel positions : Front: L R
Sampling rate : 48.0 KHz
Bit depth : 16 bits
Compression mode : Lossy
Stream size : 33.0 MiB (4%)
Список эпизодов
Диск 1
1. Ад тихо приближается
2. Безжалостный стрелок
3. Город, где воют чудовища
4. Братья: Смерть на заре
5. Чертог, где таится демон
Диск 2
6. Цветочный сад, омытый кровью
7. Чёрное небо
8. Израненный беглец
9. Вечеринка у Дракона
10. Неизведанное кибер-пространство
Диск 3
11. Ангел Востока, Сокол Запада
12. Башня слёз
13. Кровавая битва
14. Дикие дети
15. Море, купальник и морское чудовище
Диск 4
16. Потусторонний демон войны
17. Поединок! Два ангела
18. Бессмертный одноклассник
19. Заговор "24 часа"
20. Резня на шоссе
Диск 5
21. Пули в железное надгробье
22. Влюбленный дьявол
23. Место казни на красном море
24. Ангелы! Взрывайтесь!
Отличия
Отличий нет. Это первая раздача в данном разделе.
Скриншоты
Скриншоты меню
CRC Logfile
Данные логи свидетельствуют о том, что наличие ошибок при копирование или записи на DVD не выявлено! Настоятельно рекомендуем проверить своё внешнее устройство чтения носителей во избежании ошибок. DVD 1
DVD 2
DVD 3
DVD 4
DVD 5
Понравилось аниме? Не забудьте сказать за мой труд для Вас.
Не уходите с раздачи. Onegaishimasu!
[reactorr.org].t30109.torrent
 ЗОЛОТАЯ РАЗДАЧА! СКАЧАННОЕ НЕ ЗАСЧИТЫВАЕТСЯ! 
Торрент: Зарегистрирован [ 12-07-2013 00:35 ] · 0A127063386121C80ABB82C122063DED23EA7748

Скачать .torrent

Скачать

113 KB

Статус: проверено
Скачан: 0 раз
Размер: 21,31 GB
terms.php
[Профиль] [ЛС]
Показать сообщения:    
Ответить на тему

Текущее время: 15-Окт 14:50

Часовой пояс: UTC + 3



Вы не можете начинать темы
Вы не можете отвечать на сообщения
Вы не можете редактировать свои сообщения
Вы не можете удалять свои сообщения
Вы не можете голосовать в опросах
Вы не можете прикреплять файлы к сообщениям
Вы можете скачивать файлы