Берсерк: Золотой век. Фильм 1: Бехерит Властителя / Berserk Ogon Jidai-hen I: Hao no Tamago / Berserk Golden Age Arc I: Egg of the Supreme Ruler [Movie] [без хардсаба] [RUS(int),JAP+SUB] [2012 г., приключения, фэнтези, драма, DVD9]

Ответить на тему
Статистика раздачи
Размер:  4,55 GB   |    Зарегистрирован:  5 лет 3 месяца   |    Скачан:  0 раз
Сидов:  19  [  0 KB/s  ]   Подробная статистика пиров
 
     
 
 
Автор Сообщение

Гость ®

Пол: Не указан

Создавать темы 12-Июл-2013 00:35

[Цитировать]

Берсерк: Золотой век. Фильм 1: Бехерит Властителя | Berserk: Ougon Jidai Hen I - Haou no Tamago- Год выпуска: 2012
Страна:
Жанр: приключения, фэнтези, драма
Продолжительность: 01:16:50-Режиссер: Кубока Тосиюки-Студия: -Описание:
Жизнь знаменитого своей силой и жестокостью наемника Гатса меняется после встречи с Гриффитсом, харизматичным вожаком легендарного отряда Соколов — банды, ни разу не терпевшей поражения в бою. Желая оправдать доверие Гриффитса, Гатс проявляет невиданную доблесть и завоевывает уважение соратников, в том числе Каски, единственной в отряде девушки-мечника. Поддержанные Гатсом успехи Гриффитса преследуют некую цель, однако каких жертв будет стоить достижение этой цели, пока неведомо никому из наших героев.

-Источник: | #animeguild@irc. rizon. net-Качество: DVD9 | Хардсаб: Отсутствует-Видео: MPEG-2, 720x576, 16:9, 25 fps, ~8000 kbps-Звук:
1. RUS [AC3, 5.1, 48 kHz, 16 bit, 448 kbps, int.] Реанимедиа [Дубляж]
2. JAP [AC3, 5.1, 48 kHz, 16 bit, 448 kbps, int.] [Оригинальная дорожка]-Субтитры:
1. RUS | Реанимедиа [Профессиональный перевод] | Полные
2. RUS | Реанимедиа [Профессиональный перевод] | Только перевод надписей и песен-
Скриншоты меню
Скриншоты
MediaInfo
General
Complete name : J:\VIDEO_TS\VTS_01_1.VOB
Format : MPEG-PS
File size : 1 023 MiB
Duration : 4mn 47s
Overall bit rate mode : Variable
Overall bit rate : 29.9 Mbps
Video
ID : 224 (0xE0)
Format : MPEG Video
Format version : Version 2
Format profile : Main@Main
Format settings, BVOP : Yes
Format settings, Matrix : Custom
Format settings, GOP : M=3, N=15
Duration : 4mn 47s
Bit rate mode : Variable
Bit rate : 28.4 Mbps
Maximum bit rate : 8 600 Kbps
Width : 720 pixels
Height : 576 pixels
Display aspect ratio : 16:9
Frame rate : 25.000 fps
Standard : PAL
Color space : YUV
Chroma subsampling : 4:2:0
Bit depth : 8 bits
Scan type : Progressive
Compression mode : Lossy
Bits/(Pixel*Frame) : 2.736
Stream size : 972 MiB (95%)
Audio #1
ID : 189 (0xBD)-128 (0x80)
Format : AC-3
Format/Info : Audio Coding 3
Mode extension : CM (complete main)
Format settings, Endianness : Big
Muxing mode : DVD-Video
Duration : 4mn 47s
Bit rate mode : Constant
Bit rate : 448 Kbps
Channel(s) : 6 channels
Channel positions : Front: L C R, Side: L R, LFE
Sampling rate : 48.0 KHz
Bit depth : 16 bits
Compression mode : Lossy
Stream size : 15.3 MiB (1%)
Audio #2
ID : 189 (0xBD)-129 (0x81)
Format : AC-3
Format/Info : Audio Coding 3
Mode extension : CM (complete main)
Format settings, Endianness : Big
Muxing mode : DVD-Video
Duration : 4mn 47s
Bit rate mode : Constant
Bit rate : 448 Kbps
Channel(s) : 6 channels
Channel positions : Front: L C R, Side: L R, LFE
Sampling rate : 48.0 KHz
Bit depth : 16 bits
Compression mode : Lossy
Stream size : 15.3 MiB (1%)
Text #1
ID : 189 (0xBD)-32 (0x20)
Format : RLE
Format/Info : Run-length encoding
Muxing mode : DVD-Video
Text #2
ID : 189 (0xBD)-33 (0x21)
Format : RLE
Format/Info : Run-length encoding
Muxing mode : DVD-Video
Menu
Дополнительные материалы
Интервью с сейю Гатса, дублированный трейлер.
Поддержите издателя — купите диск!
[reactorr.org].t30096.torrent
Торрент: Зарегистрирован [ 12-07-2013 00:35 ] · 7027A6918F6D790DDCC4B022C66665CE5205780E

Скачать .torrent

Скачать

24 KB

Статус: проверено
Скачан: 0 раз
Размер: 4,55 GB
terms.php
 
Показать сообщения:    
Ответить на тему

Текущее время: 17-Окт 16:02

Часовой пояс: UTC + 3



Вы не можете начинать темы
Вы не можете отвечать на сообщения
Вы не можете редактировать свои сообщения
Вы не можете удалять свои сообщения
Вы не можете голосовать в опросах
Вы не можете прикреплять файлы к сообщениям
Вы можете скачивать файлы