Астронавты / Astronauts [1960, DVDRip-AVC]

Ответить на тему
Статистика раздачи
Размер:  359 MB   |    Зарегистрирован:  4 года 4 месяца   |    Скачан:  0 раз
Сидов:  2  [  0 KB/s  ]   Подробная статистика пиров
 
     
 
 
Автор Сообщение

Гость ®

Пол: Не указан

Создавать темы 28-Май-2014 22:58

[Цитировать]

Астронавты / Astronauts
Год выпуска: 1960
Страна: США
Продолжительность: 00:27:04
Перевод: Субтитры Русские и Англ
Описание: Фильм про первую семерку астронавтов НАСА, которые принимали участие в проекте Меркурий, смотреть фильм сразу после фильма Испытания Х-15
MI
C:\Video\Astronauts (1960).mkv
General
Unique ID : 202431738797750038375559855664659766687 (0x984AEF4B6A515FF28025B1DA76C51D9F)
Complete name : C:\Video\Astronauts (1960).mkv
Format : Matroska
Format version : Version 2
File size : 359 MiB
Duration : 27mn 4s
Overall bit rate : 1 853 Kbps
Movie name : rip by sasha20072007 (2012-08-11)
Encoded date : UTC 2012-11-01 14:03:25
Writing application : mkvmerge v5.6.0 ('Kenya Kane') built on May 27 2012 16:44:04
Writing library : libebml v1.2.3 + libmatroska v1.3.0
Attachment : Yes
Video #1
ID : 1
Format : AVC
Format/Info : Advanced Video Codec
Format profile : High@L4.1
Format settings, CABAC : Yes
Format settings, ReFrames : 8 frames
Codec ID : V_MPEG4/ISO/AVC
Duration : 27mn 4s
Bit rate : 1 660 Kbps
Width : 720 pixels
Height : 544 pixels
Display aspect ratio : 4:3
Frame rate : 23.976 fps
Color space : YUV
Chroma subsampling : 4:2:0
Bit depth : 8 bits
Scan type : Progressive
Bits/(Pixel*Frame) : 0.177
Stream size : 315 MiB (88%)
Writing library : x264 core 125 r2200 999b753
Encoding settings : cabac=1 / ref=8 / deblock=1:-2:-1 / analyse=0x3:0x133 / me=umh / subme=11 / psy=1 / psy_rd=1.00:0.20 / mixed_ref=1 / me_range=24 / chroma_me=1 / trellis=2 / 8x8dct=1 / cqm=0 / deadzone=21,11 / fast_pskip=1 / chroma_qp_offset=-3 / threads=6 / lookahead_threads=1 / sliced_threads=0 / nr=0 / decimate=1 / interlaced=0 / bluray_compat=0 / constrained_intra=0 / bframes=8 / b_pyramid=2 / b_adapt=2 / b_bias=0 / direct=3 / weightb=1 / open_gop=0 / weightp=2 / keyint=220 / keyint_min=22 / scenecut=40 / intra_refresh=0 / rc_lookahead=60 / rc=2pass / mbtree=1 / bitrate=1660 / ratetol=1.0 / qcomp=0.60 / qpmin=0 / qpmax=69 / qpstep=4 / cplxblur=20.0 / qblur=0.5 / vbv_maxrate=17500 / vbv_bufsize=14000 / nal_hrd=none / ip_ratio=1.30 / aq=1:0.80
Color primaries : BT.601-6 525, BT.1358 525, BT.1700 NTSC, SMPTE 170M
Transfer characteristics : BT.601-6 525, BT.601-6 625, BT.1358 525, BT.1358 625, BT.1700 NTSC, SMPTE 170M
Matrix coefficients : BT.601-6 525, BT.1358 525, BT.1700 NTSC, SMPTE 170M
Audio #2
ID : 2
Format : AC-3
Format/Info : Audio Coding 3
Mode extension : CM (complete main)
Codec ID : A_AC3
Duration : 27mn 4s
Bit rate mode : Constant
Bit rate : 192 Kbps
Channel(s) : 2 channels
Channel positions : Front: L R
Sampling rate : 48.0 KHz
Bit depth : 16 bits
Compression mode : Lossy
Stream size : 37.2 MiB (10%)
Language : English
Text #3
ID : 3
Format : UTF-8
Codec ID : S_TEXT/UTF8
Codec ID/Info : UTF-8 Plain Text
Text #4
ID : 4
Format : UTF-8
Codec ID : S_TEXT/UTF8
Codec ID/Info : UTF-8 Plain Text
Качество: DVDRip-AVC
Формат: MKV
Видео кодек: H.264
Аудио кодек: AC3
Видео: 720х544 23.976fps 1660kpbs
Аудио: 192kbps stereo 48khz
Скриншоты
[reactorr.org].t51739.torrent
Торрент: Зарегистрирован [ 28-05-2014 22:58 ] · 2122B6FFE4B9A087501C17C7077B9B288127C5A4

Скачать .torrent

Скачать

14 KB

Статус: проверено
Скачан: 0 раз
Размер: 359 MB
terms.php
 

Bryanscunc

Пол: Мужской

Стаж: 1 месяц 7 дней

Сообщений: 6

Откуда: Mali

Создавать темы 24-Сен-2018 20:09 (спустя 4 года 3 месяца)

[Цитировать]

I think, that you commit an error. Let's discuss it. Write to me in PM.
[Профиль] [ЛС]
Показать сообщения:    
Ответить на тему

Текущее время: 22-Окт 12:02

Часовой пояс: UTC + 3



Вы не можете начинать темы
Вы не можете отвечать на сообщения
Вы не можете редактировать свои сообщения
Вы не можете удалять свои сообщения
Вы не можете голосовать в опросах
Вы не можете прикреплять файлы к сообщениям
Вы можете скачивать файлы