Крутые меры / Bastille Day (2016) BDRip [H.264/1080p]

Ответить на тему
Статистика раздачи
Размер:  10,6 GB   |    Зарегистрирован:  1 год 8 месяцев   |    Скачан:  3 раза

Полного источника не было: 1 месяц 11 дней

 
     
 
 
Автор Сообщение

RazBoyNik ®

Пол: Мужской

Стаж: 4 года 11 месяцев

Сообщений: 59

Создавать темы 28-Янв-2017 11:39

[Цитировать]

Крутые меры / Bastille Day (2016) BDRip [H.264/1080p]
« Напарников не выбирают »
- Производство: США, Великобритания, Франция / Studio Canal, Vendome Pictures
Жанр: Боевик, Драма
Режиссер: Джеймс Уоткинс
Актеры: Идрис Эльба, Ричард Мэдден, Келли Райлли, Шарлотта Ле Бон, Анатол Юсеф, Хосе Гарсия, Стефани Кайлар, Лаура Хидари, Хорхе Леон Мартинес, Эрик Эбони
Описание: Ловкий карманник Майкл Мэйсон привлекает внимание полиции и спецслужб, когда крадет сумку, содержащую гораздо больше, чем просто бумажник. На его след выходит дерзкий и резкий спецагент ЦРУ Шон Брайар. Вдвоем они становятся мишенью тайной преступной организации и в течение суток должны вывести злоумышленников на чистую воду.
[kp]678233[/kp]
Возраст: 16+ (зрителям, достигшим 16 лет)
Рейтинг MPAA: R (лицам до 17 лет обязательно присутствие взрослого)
Продолжительность: 01:32:01
Качество видео: BDRip
Перевод: Дублированный, Многоголосый закадровый, Авторский
Вид субтитров: Вшитые, отключаемые
Язык субтитров: Английский (Forced, Full)
Видео: AVC/H.264, 10.1 Mbps, 1920x804
Аудио 1: DTS, 5.1, 1509 Kbps - Русский (DUB, Blu-ray RUS)
Аудио 2: DTS, 5.1, 1509 Kbps - Русский (MVO, Paradox & Omskbird records)
Аудио 3: DTS, 5.1, 1509 Kbps - Русский (AVO, Д. Есарев)
Аудио 4: DTS, 5.1, 1509 Kbps - Английский (Оригинал)
MediaInfo
Общее
Полное имя                               : Крутые меры.mkv
Формат                                   : Matroska
Версия формата                           : Version 1
Размер файла                             : 10,6 Гбайт
Продолжительность                        : 1 ч. 32 м.
Общий поток                              : 16,5 Мбит/сек
Дата кодирования                         : UTC 2017-01-26 13:12:26
Программа кодирования                    : mkvmerge v2.4.1 ('Use Me') built on Dec  5 2008 18:30:05
Библиотека кодирования                   : libebml v0.7.7 + libmatroska v0.8.1
Видео
Идентификатор                            : 1
Формат                                   : AVC
Формат/Информация                        : Advanced Video Codec
Профиль формата                          : High@L4.1
Параметр CABAC формата                   : Да
Параметр ReFrames формата                : 5 кадров
Идентификатор кодека                     : V_MPEG4/ISO/AVC
Продолжительность                        : 1 ч. 32 м.
Битрейт                                  : 10,1 Мбит/сек
Ширина                                   : 1920 пикселей
Высота                                   : 804 пикселя
Соотношение сторон                       : 2,40:1
Режим частоты кадров                     : Постоянный
Частота кадров                           : 24,000 кадра/сек
Цветовое пространство                    : YUV
Субдискретизация насыщенности            : 4:2:0
Битовая глубина                          : 8 бит
Тип развёртки                            : Прогрессивная
Бит/(Пиксели*Кадры)                      : 0.273
Размер потока                            : 6,51 Гбайт (61%)
Заголовок                                : Крутые меры (2016)
Библиотека кодирования                   : x264 core 148 r2721.18 cd45d75 VietHD_Custom_64
Настройки программы                      : cabac=1 / ref=5 / deblock=1:-3:-3 / analyse=0x3:0x133 / me=umh / subme=10 / psy=1 / fade_compensate=0.00 / psy_rd=1.03:0.00 / mixed_ref=1 / me_range=24 / chroma_me=1 / trellis=2 / 8x8dct=1 / cqm=0 / deadzone=21,11 / fast_pskip=0 / chroma_qp_offset=-2 / threads=12 / lookahead_threads=2 / sliced_threads=0 / nr=0 / decimate=0 / interlaced=0 / bluray_compat=0 / constrained_intra=0 / fgo=0 / bframes=7 / b_pyramid=2 / b_adapt=2 / b_bias=0 / direct=3 / weightb=1 / open_gop=0 / weightp=2 / keyint=250 / keyint_min=24 / scenecut=40 / intra_refresh=0 / rc_lookahead=60 / rc=crf / mbtree=0 / crf=17.8000 / qcomp=0.65 / qpmin=0:0:0 / qpmax=69:69:69 / qpstep=4 / vbv_maxrate=62500 / vbv_bufsize=78125 / crf_max=0.0 / nal_hrd=none / filler=0 / ip_ratio=1.30 / pb_ratio=1.20 / aq=3:0.80 / aq-sensitivity=10.00 / aq-factor=1.00:1.00:1.00 / aq2=0 / aq3=0 / zones=24,495,crf=16.3/513,811,crf=16.5/1455,2794,crf=16.5/3975,12199,crf=16.5/13743,23042,crf=16.5/55778,56068,crf=16.5/57330,58216,crf=16.5/58261,58355,crf=16.5/59154,59575,crf=16.5/60595,62605,crf=16.5/66925,68434,crf=16.5/68624,69843,crf=16.5/70014,73022,crf=16.5/73131,73323,crf=16.5/73760,74288,crf=16.5/79933,80925,crf=16.5/80990,87950,crf=16.5/91165,94499,crf=16.5/95069,95398,crf=16.5/95553,96815,crf=16.5/96960,97006,crf=16.5/98226,99040,crf=16.5/99079,100138,crf=16.5/100188,102049,crf=16.5/102929,103912,crf=16.5/104209,104304,crf=16.5/104567,105221,crf=16.5/105831,105924,crf=16.5/106608,111642,crf=16.5/112772,112856,crf=16.5/119781,121729,crf=16.5
Язык                                     : English
Default                                  : Да
Forced                                   : Нет
Аудио #1
Идентификатор                            : 2
Формат                                   : DTS
Формат/Информация                        : Digital Theater Systems
Режим                                    : 16
Параметр Endianness формата              : Big
Идентификатор кодека                     : A_DTS
Продолжительность                        : 1 ч. 32 м.
Вид битрейта                             : Постоянный
Битрейт                                  : 1509 Кбит/сек
Каналы                                   : 6 каналов
Расположение каналов                     : Front: L C R, Side: L R, LFE
Частота                                  : 48,0 КГц
Частота кадров                           : 93,750 кадра/сек (512 spf)
Битовая глубина                          : 24 бит
Метод сжатия                             : С потерями
Задержка видео                           : 11 мс.
Размер потока                            : 995 Мбайт (9%)
Заголовок                                : DTS (Дублированный) Blu-ray RUS
Язык                                     : Russian
Default                                  : Да
Forced                                   : Нет
Аудио #2
Идентификатор                            : 3
Формат                                   : DTS
Формат/Информация                        : Digital Theater Systems
Режим                                    : 16
Параметр Endianness формата              : Big
Идентификатор кодека                     : A_DTS
Продолжительность                        : 1 ч. 32 м.
Вид битрейта                             : Постоянный
Битрейт                                  : 1509 Кбит/сек
Каналы                                   : 6 каналов
Расположение каналов                     : Front: L C R, Side: L R, LFE
Частота                                  : 48,0 КГц
Частота кадров                           : 93,750 кадра/сек (512 spf)
Битовая глубина                          : 24 бит
Метод сжатия                             : С потерями
Задержка видео                           : 11 мс.
Размер потока                            : 995 Мбайт (9%)
Заголовок                                : DTS (Многоголосый) Paradox & Omskbird records
Язык                                     : Russian
Default                                  : Нет
Forced                                   : Нет
Аудио #3
Идентификатор                            : 4
Формат                                   : DTS
Формат/Информация                        : Digital Theater Systems
Режим                                    : 16
Параметр Endianness формата              : Big
Идентификатор кодека                     : A_DTS
Продолжительность                        : 1 ч. 32 м.
Вид битрейта                             : Постоянный
Битрейт                                  : 1509 Кбит/сек
Каналы                                   : 6 каналов
Расположение каналов                     : Front: L C R, Side: L R, LFE
Частота                                  : 48,0 КГц
Частота кадров                           : 93,750 кадра/сек (512 spf)
Битовая глубина                          : 24 бит
Метод сжатия                             : С потерями
Задержка видео                           : 11 мс.
Размер потока                            : 995 Мбайт (9%)
Заголовок                                : DTS (Одноголосый) Д. Есарев
Язык                                     : Russian
Default                                  : Нет
Forced                                   : Нет
Аудио #4
Идентификатор                            : 5
Формат                                   : DTS
Формат/Информация                        : Digital Theater Systems
Режим                                    : 16
Параметр Endianness формата              : Big
Идентификатор кодека                     : A_DTS
Продолжительность                        : 1 ч. 32 м.
Вид битрейта                             : Постоянный
Битрейт                                  : 1509 Кбит/сек
Каналы                                   : 6 каналов
Расположение каналов                     : Front: L C R, Side: L R, LFE
Частота                                  : 48,0 КГц
Частота кадров                           : 93,750 кадра/сек (512 spf)
Битовая глубина                          : 24 бит
Метод сжатия                             : С потерями
Задержка видео                           : 11 мс.
Размер потока                            : 995 Мбайт (9%)
Заголовок                                : DTS (Оригинал)
Язык                                     : English
Default                                  : Нет
Forced                                   : Нет
Текст #1
Идентификатор                            : 6
Формат                                   : UTF-8
Идентификатор кодека                     : S_TEXT/UTF8
Идентификатор кодека/Информация          : UTF-8 Plain Text
Заголовок                                : Английские (Форсированные)
Язык                                     : English
Default                                  : Да
Forced                                   : Нет
Текст #2
Идентификатор                            : 7
Формат                                   : UTF-8
Идентификатор кодека                     : S_TEXT/UTF8
Идентификатор кодека/Информация          : UTF-8 Plain Text
Заголовок                                : Английские
Язык                                     : English
Default                                  : Нет
Forced                                   : Нет
Меню
00:00:00.000                             : en:00:00:00.000
00:09:32.625                             : en:00:09:32.625
00:22:20.375                             : en:00:22:20.375
00:32:03.792                             : en:00:32:03.792
00:41:19.708                             : en:00:41:19.708
00:51:35.375                             : en:00:51:35.375
01:01:01.708                             : en:01:01:01.708
01:08:50.625                             : en:01:08:50.625
01:20:54.500                             : en:01:20:54.500
01:25:27.542                             : en:01:25:27.542
Дополнительная информация
» Начальные и финальные титры идут под аккомпанемент композиции The Road Less Travelled в исполнении Идриса Эльбы, который играет в фильме главную роль.
» На одну из ролей в фильме была утверждена Адель Экзаркопулос, однако она покинула проект, и роль Зои Нэвилл исполнила Шарлотта Ле Бон.
» Перед началом съёмок режиссёр и один из авторов сценария Джеймс Уоткинс посоветовал исполнителю главной роли Идрису Эльбе пересмотреть фильмы с участием знаменитых антигероев вроде Грязного Гарри (в исполнении Клинта Иствуда) и Попая Дойла (в исполнении Джина Хэкмена).
» Второй фильм Джеймса Уоткинса, в котором играет Келли Райлли. Она уже работала с этим режиссёром в фильме ужасов «Райское озеро» (2008).
» Одно время считалось, что режиссёром фильма станет Пьер Морель.
» Ввиду террористического акта в Ницце в день взятия Бастилии, который случился в промежутке между премьерой фильма в кинотеатрах и на носителях, на DVD в Великобритании фильм вышел под названием The Take ("Добыча»).
Скриншоты:
[reactorr.org].t74220.torrent
 СЕРЕБРЯНАЯ РАЗДАЧА! СКАЧАННОЕ ЗАСЧИТЫВАЕТСЯ ТОЛЬКО НАПОЛОВИНУ! 
Торрент: Зарегистрирован [ 28-01-2017 11:39 ] · 0E8A2F6095B29B4BA8133E323A9F88173B3856EB

Скачать .torrent

Скачать

54 KB

Статус: проверено
Скачан: 3 раз
Размер: 10,6 GB
terms.php
[Профиль] [ЛС]

jiebalOn

Пол: Не указан

Стаж: 3 месяца 26 дней

Сообщений: 1

Создавать темы 19-Июн-2018 08:36 (спустя 1 год 4 месяца)

[Цитировать]

Сожалею, что не могу сейчас поучаствовать в обсуждении. Не владею нужной информацией. Но эта тема меня очень интересует.
---
Норма.. fifa 15 скачать бесплатно полная версия, fifa 15 cracks торрент или скачать взломанную фифа 15 на пк скачать fifa 15 с яндекс диска
[Профиль] [ЛС]
Показать сообщения:    
Ответить на тему

Текущее время: 15-Окт 14:51

Часовой пояс: UTC + 3



Вы не можете начинать темы
Вы не можете отвечать на сообщения
Вы не можете редактировать свои сообщения
Вы не можете удалять свои сообщения
Вы не можете голосовать в опросах
Вы не можете прикреплять файлы к сообщениям
Вы можете скачивать файлы