Счастливого Рождества / Joyeux Noel (2005) BDRip [H.264/1080p]

Ответить на тему
Статистика раздачи
Размер:  12,31 GB   |    Зарегистрирован:  1 год 8 месяцев   |    Скачан:  0 раз

Полного источника не было: Никогда

 
     
 
 
Автор Сообщение

RazBoyNik ®

Пол: Мужской

Стаж: 4 года 11 месяцев

Сообщений: 59

Создавать темы 31-Янв-2017 13:31

[Цитировать]

Счастливого Рождества / Joyeux Noel - Производство: Франция, Германия, Великобритания, Бельгия, Румыния, Норвегия, США, Япония / Artmis Productions, C.R.R.A.V, Canal+ [fr], Centre National de la Cinmatographie (CNC), Cin Cinmas
Жанр: Военный, Драма, Мелодрама, Музыкальный
Режиссер: Кристиан Карион
Актеры: Дайан Крюгер, Бенно Фюрман, Гийом Кане, Гари Льюис, Даниэль Брюль, Дэни Бун, Алекс Фернс, Стивен Робертсон, Бернар Ле Кок, Томас Шмаузер
Описание:
В канун Рождества 1914 года четверо людей пережили незабываемое. Шотландский священник, французский лейтенант, немецкий тенор и его возлюбленная оказались в самом сердце спонтанного братства, возникшего между траншеями немцев, англичан и французов. Ружья были оставлены на дне окопов, а сами солдаты и офицеры вышли навстречу друг другу, чтобы обменяться сигаретами, разделить шоколад и пожелать друг другу: «Счастливого Рождества!»
[kp]84052[/kp]
Возраст: 12+ (зрителям, достигшим 12 лет)
Рейтинг MPAA: PG-13 (детям до 13 лет просмотр нежелателен)
Продолжительность: 01:55:59
Качество видео: BDRip
Перевод: Многоголосый закадровый (BD RUS)
Язык субтитров: Русский, Английский, Французский, Украинский
Вид субтитров: Вшитые отключаемые
Видео: AVC/H.264, 1920x860, ~12,5 mbps, 23,976 fps
Аудио #1: AC3, 6 ch, 448 kbps, 48,0 KHz - Русский (Многоголосый ''BD RUS'')
Аудио #2: AC3, 6 ch, 640 kbps, 48,0 KHz - Украинский (Двухголосый ''TBi'')
Аудио #3: DTS, 6 ch, 1509 kbps, 48,0 KHz - Немецкий+Французский+Английский
Аудио #4: AAC, 2 ch, 93,9 kbps, 48,0 KHz - Французский (Комментарии)
Mediainfo:
Общее
Уникальный идентификатор : 211045485032687078451381554743963327640 (0x9EC5E1C5D9E0EE72B2802FDBA9389C98)
Полное имя : JoyeuxNoel1080p.mkv
Формат : Matroska
Версия формата : Version 4 / Version 2
Размер файла : 12,3 Гбайт
Продолжительность : 1 ч. 55 м.
Общий поток : 15,2 Мбит/сек
Дата кодирования : UTC 2017-01-29 10:00:27
Программа кодирования : mkvmerge v9.8.0 ('Kuglblids') 64bit
Библиотека кодирования : libebml v1.3.4 + libmatroska v1.4.5
Обложка : Yes
Attachments : cover.jpg
Видео
Идентификатор : 9
Формат : AVC
Формат/Информация : Advanced Video Codec
Профиль формата : High@L4.1
Параметр CABAC формата : Да
Параметр ReFrames формата : 5 кадров
Идентификатор кодека : V_MPEG4/ISO/AVC
Продолжительность : 1 ч. 55 м.
Битрейт : 12,5 Мбит/сек
Ширина : 1920 пикселей
Высота : 816 пикселей
Соотношение сторон : 2,35:1
Режим частоты кадров : Постоянный
Частота кадров : 23,976 (23976/1000) кадра/сек
Цветовое пространство : YUV
Субдискретизация насыщенности : 4:2:0
Битовая глубина : 8 бит
Тип развёртки : Прогрессивная
Бит/(Пиксели*Кадры) : 0.333
Размер потока : 10,1 Гбайт (82%)
Библиотека кодирования : x264 core 148 r2744+55 950084e t_mod_Custom [8-bit@all X86_64]
Настройки программы : cabac=1 / ref=5 / deblock=1:-3:-3 / analyse=0x3:0x133 / me=umh / subme=10 / psy=1 / fade_compensate=0.00 / psy_rd=1.10:0.05 / mixed_ref=1 / me_range=32 / chroma_me=1 / trellis=2 / 8x8dct=1 / cqm=0 / deadzone=21,11 / fast_pskip=1 / chroma_qp_offset=-3 / threads=6 / lookahead_threads=1 / sliced_threads=0 / nr=0 / decimate=1 / interlaced=0 / bluray_compat=0 / constrained_intra=0 / fgo=0 / bframes=8 / b_pyramid=2 / b_adapt=2 / b_bias=0 / direct=3 / weightb=1 / open_gop=0 / weightp=2 / keyint=250 / keyint_min=23 / scenecut=40 / intra_refresh=0 / rc=2pass / mbtree=0 / bitrate=12500 / ratetol=1.0 / qcomp=0.70 / qpmin=0:0:0 / qpmax=69:69:69 / qpstep=4 / cplxblur=20.0 / qblur=0.5 / ip_ratio=1.30 / pb_ratio=1.20 / aq=1:0.70 / aq-sensitivity=10.00 / aq-factor=1.00:1.00:1.00 / aq2=1:0.60 / aq2-sensitivity=15.00 / aq2-factor=1.00:1.00:1.00 / aq3=1:[0.55:0.55]:[0.55:0.55]:[0.55:0.55]:[0.55:0.55] / aq3-sensitivity=10.00 / aq3-factor=[1.00:1.00]:[1.00:1.00]:[1.00:1.00] / aq3-boundary=192:64:24
Язык : English
Default : Да
Forced : Нет
Цветовой диапазон : Limited
Коэффициенты матрицы : BT.709
Аудио #1
Идентификатор : 1
Формат : AC-3
Формат/Информация : Audio Coding 3
Расширение режима : CM (complete main)
Параметр Endianness формата : Big
Идентификатор кодека : A_AC3
Продолжительность : 1 ч. 55 м.
Вид битрейта : Постоянный
Битрейт : 448 Кбит/сек
Каналы : 6 каналов
Расположение каналов : Front: L C R, Side: L R, LFE
Частота : 48,0 КГц
Частота кадров : 31,250 кадров/сек (1536 spf)
Битовая глубина : 16 бит
Метод сжатия : С потерями
Размер потока : 372 Мбайт (3%)
Язык : Russian
Default : Да
Forced : Нет
Аудио #2
Идентификатор : 2
Формат : AC-3
Формат/Информация : Audio Coding 3
Расширение режима : CM (complete main)
Параметр Endianness формата : Big
Идентификатор кодека : A_AC3
Продолжительность : 1 ч. 55 м.
Вид битрейта : Постоянный
Битрейт : 640 Кбит/сек
Каналы : 6 каналов
Расположение каналов : Front: L C R, Side: L R, LFE
Частота : 48,0 КГц
Частота кадров : 31,250 кадров/сек (1536 spf)
Битовая глубина : 16 бит
Метод сжатия : С потерями
Размер потока : 531 Мбайт (4%)
Заголовок : двухголосый закадровый TBi
Язык : Ukrainian
Default : Нет
Forced : Нет
Аудио #3
Идентификатор : 3
Формат : DTS
Формат/Информация : Digital Theater Systems
Режим : 16
Параметр Endianness формата : Big
Идентификатор кодека : A_DTS
Продолжительность : 1 ч. 55 м.
Вид битрейта : Постоянный
Битрейт : 1509 Кбит/сек
Каналы : 6 каналов
Расположение каналов : Front: L C R, Side: L R, LFE
Частота : 48,0 КГц
Частота кадров : 93,750 кадра/сек (512 spf)
Битовая глубина : 24 бит
Метод сжатия : С потерями
Размер потока : 1,22 Гбайт (10%)
Заголовок : German + French + English
Язык : Несколько языков
Default : Нет
Forced : Нет
Аудио #4
Идентификатор : 4
Формат : AAC
Формат/Информация : Advanced Audio Codec
Профиль формата : LC
Идентификатор кодека : A_AAC
Продолжительность : 1 ч. 55 м.
Битрейт : 93,9 Кбит/сек
Каналы : 2 канала
Расположение каналов : Front: L R
Частота : 48,0 КГц
Частота кадров : 46,875 кадров/сек (1024 spf)
Метод сжатия : С потерями
Задержка видео : 9 мс.
Размер потока : 77,9 Мбайт (1%)
Заголовок : commentary by director Christian Carion & producer Christophe Rossignon
Язык : French
Default : Нет
Forced : Нет
Текст #1
Идентификатор : 5
Формат : UTF-8
Идентификатор кодека : S_TEXT/UTF8
Идентификатор кодека/Информация : UTF-8 Plain Text
Продолжительность : 1 ч. 45 м.
Битрейт : 59 бит/сек
Count of elements : 867
Размер потока : 45,8 Кбайт (0%)
Язык : Russian
Default : Нет
Forced : Нет
Текст #2
Идентификатор : 6
Формат : UTF-8
Идентификатор кодека : S_TEXT/UTF8
Идентификатор кодека/Информация : UTF-8 Plain Text
Продолжительность : 1 ч. 45 м.
Битрейт : 58 бит/сек
Count of elements : 869
Размер потока : 45,5 Кбайт (0%)
Язык : Ukrainian
Default : Нет
Forced : Нет
Текст #3
Идентификатор : 7
Формат : UTF-8
Идентификатор кодека : S_TEXT/UTF8
Идентификатор кодека/Информация : UTF-8 Plain Text
Продолжительность : 1 ч. 55 м.
Битрейт : 31 бит/сек
Count of elements : 809
Размер потока : 27,1 Кбайт (0%)
Язык : English
Default : Нет
Forced : Нет
Текст #4
Идентификатор : 8
Формат : UTF-8
Идентификатор кодека : S_TEXT/UTF8
Идентификатор кодека/Информация : UTF-8 Plain Text
Продолжительность : 1 ч. 48 м.
Битрейт : 26 бит/сек
Count of elements : 612
Размер потока : 21,2 Кбайт (0%)
Язык : French
Default : Нет
Forced : Нет
Меню
00:00:00.000 : en:00:00:00.000
00:08:08.655 : en:00:08:08.655
00:17:04.440 : en:00:17:04.440
00:27:25.561 : en:00:27:25.561
00:36:07.707 : en:00:36:07.707
00:45:13.502 : en:00:45:13.502
00:55:05.469 : en:00:55:05.469
01:06:01.958 : en:01:06:01.958
01:13:47.256 : en:01:13:47.256
01:23:22.706 : en:01:23:22.706
01:32:43.099 : en:01:32:43.099
01:41:14.277 : en:01:41:14.277
01:48:07.981 : en:01:48:07.981
Скриншоты:
[reactorr.org].t74223.torrent
 СЕРЕБРЯНАЯ РАЗДАЧА! СКАЧАННОЕ ЗАСЧИТЫВАЕТСЯ ТОЛЬКО НАПОЛОВИНУ! 
Торрент: Зарегистрирован [ 31-01-2017 13:31 ] · FED0706E80F404FA641AE9256D5893744A94457B

Скачать .torrent

Скачать

62 KB

Статус: проверено
Скачан: 0 раз
Размер: 12,31 GB
terms.php
[Профиль] [ЛС]
Показать сообщения:    
Ответить на тему

Текущее время: 20-Окт 04:12

Часовой пояс: UTC + 3



Вы не можете начинать темы
Вы не можете отвечать на сообщения
Вы не можете редактировать свои сообщения
Вы не можете удалять свои сообщения
Вы не можете голосовать в опросах
Вы не можете прикреплять файлы к сообщениям
Вы можете скачивать файлы