Жизнь в параллельном мире с нуля / Re: Zero kara Hajimeru Isekai Seikatsu [S01] (2016) HDTVRip 720p | AniDub, SHIZA Project

Ответить на тему
Статистика раздачи
Размер:  12,86 GB   |    Зарегистрирован:  1 год 8 месяцев   |    Скачан:  0 раз

Полного источника не было: Никогда

 
     
 
 
Автор Сообщение

Шрайк ®

Пол: Мужской

Стаж: 6 лет 1 месяц

Сообщений: 593

Создавать темы 09-Фев-2017 13:04

[Цитировать]

Жизнь в параллельном мире с нуля
Информация о фильме
Название: Жизнь в параллельном мире с нуля
Оригинальное название: Re: Zero kara Hajimeru Isekai Seikatsu
Год выхода: 2016
Жанр: драма, приключения, фэнтези
Режиссер: Ватанабэ Масахару
Художник: Такаминэ Ёсито, Канэсиро Сая
В ролях: Кобаяси Юсукэ, Такахаси Риэ, Утияма Юми, Акасаки Тинацу, Минасэ Инори, Муракава Риэ, Арай Сатоми, Коясу Такэхито, Накамура Юйти, Ното Мамико, Тамура Юкари, Игути Юка, Фудзивара Кэйдзи, Хориэ Юй, Хориути Кэнъю, Уэда Кана, Эгути Такуя, Мацуока Ёсицугу, Мугихито, Ямамото Итару, Муро Гэнки, Ямасита Дайки
О фильме:
Старшеклассник Нацуки Субару, геймер и домосед, особо не удивился, когда среди ночи вдруг оказался в фентезийном городе, полном странных существ. А чего бояться? Любой игрок знает, что по закону жанра в волшебном мире последний задохлик обрастает силами и способностями, а там и девушки подтянутся. Нацуки же не только чипсы ел за монитором, но и регулярно «качался». Парню осталось ждать, пока силушка забурлит по жилам и позволит… ну, для начала спасти прекрасную принцессу. И дождался – только вышло наоборот, и принцесса спасла «героя», вытащив беднягу из переулка, где пришельца от души метелила местная шпана.
От юной с виду эльфийки Субару узнал, что теперь он в стране Лугунике, где идут выборы королевы, и новая знакомая, назвавшаяся Сателлой – одна из претенденток. Увы, магический знак участницы у нее украли, его надо срочно вернуть. Пришлось «попаданцу» с ходу включаться в большую игру мира меча и магии, где не то что за драгоценность – за лишнее слово зарежут. Так наш герой и открыл свою способность – мягко говоря, малопонятную, но в жизни очень полезную! Если истинному геймеру позволить исправлять прошлые ошибки – он рано или поздно любого мага и рыцаря за пояс заткнет!
© Hollow, World Art
World Art | MAL
Страна: Япония
Студия: White Fox
Продолжительность: 00:24:50
Язык: Русский, Японский
Перевод: Любительский (многоголосый, закадровый)
Файл
Качество: HDTVRip
Формат: MKV
Кодек: H.264
Аудио кодек: AAC
Видео: 1280x720, 23.976 fps, 1800 kbps
Аудио RUS: 48.0 kHz, AAC, 2 ch, 192 kbps - SHIZA Project
Аудио RUS: 48.0 kHz, AAC, 2 ch, 192 kbps - AniDub
Аудио JAP: 48.0 kHz, AAC, 2 ch, 192 kbps
Субтитры: русские (встроенные полный перевод, ASS) - YakuSub Studio
Релиз от:
Озвучивание: Egoist, Dancel, Лизавета, Lianna
Перевод: AOS
Тайминг и работа со звуком: ERASP, Daelit
Релиз от:
Озвучивание: Kiara_Laine, Oriko, Balfor, Cuba77
Перевод: Bobby Deimos
Тайминг и работа со звуком: Al'pair (1-10), NeSqUiK (+11)
Скриншоты
Список серий
01. Конец начала и начало конца.
02. Воссоединение с ведьмой.
03. Жизнь в альтернативном мире с нуля.
04. Счастливая семья поместья Розуэлл.
05. Утро нашего обещания всё так же далеко.
06. Звук цепей.
07. Перезагрузка Нацуки Субару.
08. Я плакал, кричал на пределе сил, и перестал.
09. Что значит храбрость.
10. Отчаянные меры демонотворённого.
11. Рэм.
12. Возвращение в столицу.
13. Самопровозглашенный рыцарь Нацуки Субару.
14. Болезнь, что зовется отчаянием.
15. Вне безумия.
16. Жадность свиньи.
17. Величайший позор.
18. С Нуля.
19. Битва с Белым Китом.
20. Вильгельм ван Астрея.
21. Риск, прогоняющий отчаяние.
22. Вспышка лени.
23. Омерзительная лень.
24. Самопровозглашённый рыцарь и величайший рыцарь.
25. Вот и вся история.
MediaInfo
General
Format : Matroska
Format version : Version 4 / Version 2
File size : 836 MiB
Duration : 49mn 41s
Overall bit rate : 2 353 Kbps
Encoded date : UTC 2016-08-02 12:57:55
Writing application : mkvmerge v8.3.0 ('Over the Horizon') 64bit
Writing library : libebml v1.3.1 + libmatroska v1.4.2
Video
ID : 1
Format : AVC
Format/Info : Advanced Video Codec
Format profile : High@L4.1
Format settings, CABAC : Yes
Format settings, ReFrames : 4 frames
Codec ID : V_MPEG4/ISO/AVC
Duration : 49mn 29s
Bit rate : 1 807 Kbps
Width : 1 280 pixels
Height : 720 pixels
Display aspect ratio : 16:9
Frame rate mode : Constant
Frame rate : 23.976 (24000/1001) fps
Color space : YUV
Chroma subsampling : 4:2:0
Bit depth : 8 bits
Scan type : Progressive
Bits/(Pixel*Frame) : 0.082
Stream size : 640 MiB (76%)
Writing library : x264 core 129 r2245+729M 1a52e03
Encoding settings : cabac=1 / ref=4 / deblock=1:1:-1 / analyse=0x3:0x113 / me=umh / subme=9 / psy=1 / fade_compensate=0.00 / psy_rd=1.00:0.00 / mixed_ref=1 / me_range=24 / chroma_me=1 / trellis=2 / 8x8dct=1 / cqm=0 / deadzone=21,11 / fast_pskip=1 / chroma_qp_offset=-2 / threads=8 / lookahead_threads=1 / sliced_threads=0 / nr=0 / decimate=1 / interlaced=0 / bluray_compat=0 / constrained_intra=0 / fgo=0 / bframes=9 / b_pyramid=2 / b_adapt=2 / b_bias=0 / direct=1 / weightb=1 / open_gop=0 / weightp=2 / keyint=240 / keyint_min=24 / scenecut=40 / intra_refresh=0 / rc=crf / mbtree=0 / crf=17.0 / qcomp=0.72 / qpmin=0 / qpmax=69 / qpstep=4 / ip_ratio=1.40 / pb_ratio=1.30 / aq=1:0.85
Language : Japanese
Default : Yes
Forced : No
Color range : Limited
Color primaries : BT.709
Transfer characteristics : BT.709
Matrix coefficients : BT.709
Audio #1
ID : 2
Format : AAC
Format/Info : Advanced Audio Codec
Format profile : LC
Codec ID : A_AAC
Duration : 49mn 29s
Bit rate : 167 Kbps
Channel(s) : 2 channels
Channel positions : Front: L R
Sampling rate : 48.0 KHz
Frame rate : 46.875 fps (1024 spf)
Compression mode : Lossy
Delay relative to video : 9ms
Stream size : 59.0 MiB (7%)
Title : SHIZA Project
Language : Russian
Default : Yes
Forced : No
Audio #2
ID : 3
Format : AAC
Format/Info : Advanced Audio Codec
Format profile : LC
Codec ID : A_AAC
Duration : 49mn 41s
Bit rate : 192 Kbps
Channel(s) : 2 channels
Channel positions : Front: L R
Sampling rate : 48.0 KHz
Frame rate : 46.875 fps (1024 spf)
Compression mode : Lossy
Stream size : 68.3 MiB (8%)
Title : AniDub
Language : Russian
Default : No
Forced : No
Audio #3
ID : 4
Format : AAC
Format/Info : Advanced Audio Codec
Format profile : LC
Codec ID : A_AAC
Duration : 49mn 29s
Bit rate : 192 Kbps
Channel(s) : 2 channels
Channel positions : Front: L R
Sampling rate : 48.0 KHz
Frame rate : 46.875 fps (1024 spf)
Compression mode : Lossy
Stream size : 67.9 MiB (8%)
Title : Original
Language : Japanese
Default : No
Forced : No
Text
ID : 5
Format : ASS
Codec ID : S_TEXT/ASS
Codec ID/Info : Advanced Sub Station Alpha
Duration : 49mn 13s
Bit rate : 179 bps
Count of elements : 783
Compression mode : Lossless
Stream size : 64.9 KiB (0%)
Title : Полные субтитры
Language : Russian
Default : Yes
Forced : No
[reactorr.org].t74246.torrent
 СЕРЕБРЯНАЯ РАЗДАЧА! СКАЧАННОЕ ЗАСЧИТЫВАЕТСЯ ТОЛЬКО НАПОЛОВИНУ! 
Торрент: Зарегистрирован [ 09-02-2017 13:04 ] · CC1E7BEEF608A4A6099C248464D6E8FBC34DCC3B

Скачать .torrent

Скачать

67 KB

Статус: проверено
Скачан: 0 раз
Размер: 12,86 GB
terms.php
[Профиль] [ЛС]

Шрайк ®

Пол: Мужской

Стаж: 6 лет 1 месяц

Сообщений: 593

Создавать темы 09-Фев-2017 13:15 (спустя 11 минут)

[Цитировать]

Вопрос, а что за песня звучит в конце 14-той серии, когда Нацик Субару ищет Рем среди убиеных? ah
[Профиль] [ЛС]

Шрайк ®

Пол: Мужской

Стаж: 6 лет 1 месяц

Сообщений: 593

Создавать темы 18-Апр-2017 11:02 (спустя 2 месяца 8 дней)

[Цитировать]

Для тех кто задаётся похожим вопросом.
Открывающие темы (опенинги):
Redo (серии 2, 4, 6, 8, 10, в 11 серии как фоновая). Текст — Гэнки Мидзуно, аранжировка — Макото Миядзаки, вокал — Кономи Судзуки.
Paradisus-Paradoxum (серии 14, 17, 19, 20). Исполнение — MYTH & ROID.
Закрывающие темы (эндинги):
STYX HELIX (серии 1-5, 8-11). Исполнение — MYTH & ROID.
Stay Alive (серии 13, 16, 17, 20, 23). Текст и аранжировка — Heart’s Cry, вокал — Риэ Такахаси (сэйю Эмилии).
Фоновые темы:
Bōya no Yume yo (серия 8). Текст — hotaru, аранжировка — Масаёси Оойси, вокал — Риэ Такахаси.
STRAIGHT BET (вместо эндинга в 7 серии). Исполнение — MYTH & ROID.
theater D (вместо эндинга в 14 серии). Исполнение — MYTH & ROID.
Wishing (вместо эндинга в 18 серии). Текст и музыка — Hige Driver, аранжировка — Аято Синодзаки, вокал — Инори Минасэ (сэйю Рем).
Yoake no Michi (вместо эндинга 19 серии как рингтон телефона Субару). Композитор — Эрико Кисида. Эта же музыка использовалась в опенинге аниме Flanders no Inu.
[Профиль] [ЛС]

greebyunlinee

Пол: Не указан

Стаж: 25 дней

Сообщений: 2

Создавать темы 22-Сен-2018 11:45 (спустя 1 год 5 месяцев)

[Цитировать]

cherokee casino <a href="https://vegascasino.icu/">free casino games vegas world</a> virgin online casino <a href="https://vegascasino.icu/">grand falls casino</a> | mountaineer casino online casino games
[Профиль] [ЛС]
Показать сообщения:    
Ответить на тему

Текущее время: 17-Окт 16:02

Часовой пояс: UTC + 3



Вы не можете начинать темы
Вы не можете отвечать на сообщения
Вы не можете редактировать свои сообщения
Вы не можете удалять свои сообщения
Вы не можете голосовать в опросах
Вы не можете прикреплять файлы к сообщениям
Вы можете скачивать файлы